Достать ножи: Стеклянная луковица

MVO

Добыча

Дубляж

Уэнсдэй

1 сезон

Тор

Дубляж

13 клиническая

1 сезон

Жестокая ночь

MVO

Одни из нас

1 сезон

Deluxe

pack

Рекомендуем

30

Пиратка

ВАЖНО

ВАЖНО

Ghostwire

Пиратка

jed

RePack

nioh2

RePack

RDR2

RePack

NEED FOR SPEED™ PAYBACK

RePack

скачать торрент

Кинопоиск HD

Острые козырьки 6 сезон

6 сезон

FAR CRY 6

RePack

скачать торрент

Лицензия

скачать торрент

MVO

1

1 сезон

скачать торрент

1 сезон

скачать торрент

Лицензия

  

Звездные войны: Эпизод 3 - Месть Ситхов / Star Wars: Episode III - Revenge of the Sith (Джордж Лукас) [2005, Фантастика, фэнтези, боевик, приключения, UHD BDRip 2160p] Дубляж [Лицензия]

Звездные войны: Эпизод 3 - Месть Ситхов через торрент piratbit.org

Размер: 21.55 GB | Добавлен: 2 года 10 мес. назад | Торрент скачан:52 раза
Смотреть онлайн | Скачать | Поддержите нас   

31-03-2020 19:02 Звездные войны: Эпизод 3 - Месть Ситхов Скачать торрент  

Звездные войны: Эпизод 3 - Месть Ситхов | Star Wars: Episode III - Revenge of the Sith
Год выпуска: 2005
Страна: США
Жанр: Фантастика, фэнтези, боевик, приключения
Продолжительность: 02:20:08
Перевод: Дублированный | Лицензия
Субтитры: Русские (Forced, full), английские

Режиссер: Джордж Лукас

rating

В ролях: Эван МакГрегор, Натали Портман, Хейден Кристенсен, Иэн МакДайармид, Сэмюэл Л. Джексон, Джимми Смитс, Фрэнк Оз, Энтони Дэниелс, Кристофер Ли, Киша Касл-Хьюз, Сайлас Карсон, Джей Лагайя, Брюс Спенс, Уэйн Пиграм, Темуэра Моррисон, Дэвид Боуэрс, Оливер Форд Дэвис, Ахмед Бест, Роэн Никол, Джереми Буллок, Аманда Лукас, Кенни Бэйкер, Мэтт Слоун, Питер Мейхью, Ребекка Джексон Мендоса, Джоэл Эдгертон, Бонни Пессе, Джетт Лукас, Такс Акиндойени, Мэтт Роуэн

Описание: Давным-давно, в далёкой-далёкой галактике бушуют клонические войны. Галактическая Республика и Конфедерация независимых систем ведут губительную войну. Мастер-джедай Оби-Ван Кеноби и рыцарь-джедай Энакин Скайуокер сквозь вихри атак, маневрируя между армадами крейсеров и пунктирами бластеров, добираются до звездолёта генерала Гривуса. Там они обнаруживают своего сенатора в оковах и начинают бой с лордом ситхов графом Дуку. В результате схватки, Энакин одерживает верх, пуская в ход свою ненависть и, по приказу Палпатина, убивает чёрного графа… Падме сообщает своему тайному супругу Энакину, что беременна. Его переполняет страх потерять любимую, и рушатся прежние идеалы – он сближается с Палпатином. Сенатор подогревает в Скайуокере тщеславие и сообщает, что джедаи и ситхи мало чем отличаются в желании приумножения власти, однако искусству использования Силы для создания жизни и спасения от смерти джедаи научить не могут… Палпатин открывается перед Энакином и единственное, что останавливает джедая выдать владыку ситхов суду – это возможность отвести смерть от Падме. И вот в кульминационный момент, когда магистр Винду держит заклятого врага, Энакин встаёт на сторону Тьмы и спасает нового учителя. Произошло трагическое рождение Дарта Вейдера. Круг смыкается, МЕСТЬ СИТХОВ вступает в силу: Дарт Сидиус получает нового ученика, приводится в действие приказ 66, провозглашается начало Галактической Империи…

Качество: UHD BDRip 2160p
Формат: MKV

Видео: 3840x1608 at 23.976 fps, MPEG-H HEVC HDR Video, 20200 kbps avg
Аудио #01: 48 kHz, DTS, 5.1, 768 Kbps | Лицензия | RUS |
Аудио #02: 48 kHz, AC3, 5.1, 448 Kbps | Лицензия | RUS |
Аудио #03: 48 kHz, AC3, 5.1, 640 Kbps | Оригинал | ENG |
скриншот  скриншот  скриншот  

скриншот  скриншот  скриншот  

Общее
Уникальный идентификатор : 177005429553348430075436640687645715851 (0x852A01762F0E8ACC9B2CB4C998A6ED8B)
Полное имя : D:\Передел\Star.Wars.Episode.III.Revenge.of.the.Sith.2005.2160p.BDRip.x265.10bit.HDR.Master5.mkv
Формат : Matroska
Версия формата : Version 4
Размер файла : 21,5 Гбайт
Продолжительность : 2 ч. 20 м.
Общий поток : 22,0 Мбит/сек
Название фильма : Star.Wars.Episode.III.Revenge.of.the.Sith.2005.2160p.BDRip.x265.10bit.HDR.Master5
Дата кодирования : UTC 2020-03-31 05:56:10
Программа кодирования : mkvmerge v7.9.0 ('Birds') 64bit
Библиотека кодирования : libebml v1.3.1 + libmatroska v1.4.2
Обложка : Yes
Attachments : small_cover.jpg / small_cover_land.jpg / cover.jpg / cover_land.jpg

Видео
Идентификатор : 1
Формат : HEVC
Формат/Информация : High Efficiency Video Coding
Коммерческое название : HDR10
Профиль формата : Main 10@L5.1@High
Идентификатор кодека : V_MPEGH/ISO/HEVC
Продолжительность : 2 ч. 20 м.
Битрейт : 20,2 Мбит/сек
Ширина : 3840 пикселей
Высота : 1608 пикселей
Соотношение сторон : 2,40:1
Режим частоты кадров : Постоянный
Частота кадров : 23,976 (24000/1001) кадра/сек
Цветовое пространство : YUV
Субдискретизация насыщенности : 4:2:0 (Type 2)
Битовая глубина : 10 бит
Бит/(Пиксели*Кадры) : 0.136
Размер потока : 19,7 Гбайт (92%)
Заголовок : Star.Wars.Episode.III.Revenge.of.the.Sith.2005.2160p.BDRip.x265.10bit.HDR.Master5
Библиотека кодирования : x265 3.0_Au+10-74a8672ea4f7:[Windows][GCC 8.2.1][64 bit] 10bit
Настройки программы : cpuid=1111039 / frame-threads=6 / numa-pools=24,24,24,24 / wpp / no-pmode / no-pme / no-psnr / no-ssim / log-level=2 / input-csp=1 / input-res=3840x1608 / interlace=0 / total-frames=0 / level-idc=51 / high-tier=1 / uhd-bd=0 / ref=3 / no-allow-non-conformance / repeat-headers / annexb / aud / hrd / info / hash=0 / no-temporal-layers / no-open-gop / min-keyint=1 / keyint=24 / gop-lookahead=0 / bframes=4 / b-adapt=2 / b-pyramid / bframe-bias=0 / rc-lookahead=25 / lookahead-slices=4 / scenecut=40 / radl=0 / no-splice / no-intra-refresh / ctu=64 / min-cu-size=8 / no-rect / no-amp / max-tu-size=32 / tu-inter-depth=1 / tu-intra-depth=1 / limit-tu=0 / rdoq-level=0 / dynamic-rd=0.00 / no-ssim-rd / signhide / no-tskip / nr-intra=0 / nr-inter=0 / no-constrained-intra / strong-intra-smoothing / max-merge=2 / limit-refs=3 / no-limit-modes / me=1 / subme=2 / merange=57 / temporal-mvp / weightp / no-weightb / no-analyze-src-pics / deblock=0:0 / no-sao / no-sao-non-deblock / rd=3 / no-early-skip / rskip / no-fast-intra / no-tskip-fast / no-cu-lossless / no-b-intra / no-splitrd-skip / rdpenalty=0 / psy-rd=2.00 / psy-rdoq=0.00 / no-rd-refine / no-lossless / cbqpoffs=0 / crqpoffs=0 / rc=crf / crf=16.0 / qcomp=0.60 / qpstep=4 / stats-write=0 / stats-read=0 / vbv-maxrate=160000 / vbv-bufsize=160000 / vbv-init=0.9 / crf-max=0.0 / crf-min=0.0 / ipratio=1.40 / pbratio=1.30 / aq-mode=1 / aq-strength=1.00 / cutree / zone-count=0 / no-strict-cbr / qg-size=32 / no-rc-grain / qpmax=69 / qpmin=0 / no-const-vbv / sar=1 / overscan=0 / videoformat=5 / range=0 / colorprim=9 / transfer=16 / colormatrix=9 / chromaloc=1 / chromaloc-top=2 / chromaloc-bottom=2 / display-window=0 / master-display=G(8500,39850)B(6550,2300)R(35400,14600)WP(15635,16450)L(10000000,01) / max-cll=0,0 / min-luma=0 / max-luma=1023 / log2-max-poc-lsb=8 / vui-timing-info / vui-hrd-info / slices=1 / opt-qp-pps / opt-ref-list-length-pps / no-multi-pass-opt-rps / scenecut-bias=0.05 / no-opt-cu-delta-qp / no-aq-motion / hdr / hdr-opt / no-dhdr10-opt / no-idr-recovery-sei / analysis-reuse-level=5 / scale-factor=0 / refine-intra=0 / refine-inter=0 / refine-mv=0 / refine-ctu-distortion=0 / no-limit-sao / ctu-info=0 / no-lowpass-dct / refine-analysis-type=0 / copy-pic=1 / max-ausize-factor=1.0 / no-dynamic-refine / no-single-sei / no-hevc-aq / no-svt / qp-adaptation-range=1.00
Default : Да
Forced : Нет
Цветовой диапазон : Limited
Основные цвета : BT.2020
Характеристики трансфера : PQ
Коэффициенты матрицы : BT.2020 non-constant
MasteringDisplay_ColorPrimaries : BT.2020
MasteringDisplay_Luminance : min: 0.0001 cd/m2, max: 1000 cd/m2

Аудио #1
Идентификатор : 2
Формат : DTS
Формат/Информация : Digital Theater Systems
Идентификатор кодека : A_DTS
Продолжительность : 2 ч. 20 м.
Вид битрейта : Постоянный
Битрейт : 768 Кбит/сек
Каналы : 6 каналов
Channel layout : C L R Ls Rs LFE
Частота : 48,0 КГц
Частота кадров : 93,750 кадра/сек (512 SPF)
Битовая глубина : 24 бит
Метод сжатия : С потерями
Размер потока : 770 Мбайт (3%)
Заголовок : Дубляж License
Язык : Russian
Default : Да
Forced : Да

Аудио #2
Идентификатор : 3
Формат : AC-3
Формат/Информация : Audio Coding 3
Коммерческое название : Dolby Digital
Идентификатор кодека : A_AC3
Продолжительность : 2 ч. 20 м.
Вид битрейта : Постоянный
Битрейт : 448 Кбит/сек
Каналы : 6 каналов
Channel layout : L R C LFE Ls Rs
Частота : 48,0 КГц
Частота кадров : 31,250 кадров/сек (1536 SPF)
Битовая глубина : 16 бит
Метод сжатия : С потерями
Размер потока : 449 Мбайт (2%)
Заголовок : Дубляж License
Язык : Russian
ServiceKind/String : Complete Main
Default : Нет
Forced : Нет

Аудио #3
Идентификатор : 4
Формат : AC-3
Формат/Информация : Audio Coding 3
Коммерческое название : Dolby Digital
Идентификатор кодека : A_AC3
Продолжительность : 2 ч. 20 м.
Вид битрейта : Постоянный
Битрейт : 640 Кбит/сек
Каналы : 6 каналов
Channel layout : L R C LFE Ls Rs
Частота : 48,0 КГц
Частота кадров : 31,250 кадров/сек (1536 SPF)
Битовая глубина : 16 бит
Метод сжатия : С потерями
Размер потока : 641 Мбайт (3%)
Язык : English
ServiceKind/String : Complete Main
Default : Нет
Forced : Нет

Текст #1
Идентификатор : 5
Формат : UTF-8
Идентификатор кодека : S_TEXT/UTF8
Идентификатор кодека/Информация : UTF-8 Plain Text
Продолжительность : 1 м. 7 с.
Битрейт : 125 бит/сек
ElementCount : 16
Размер потока : 1,03 Кбайт (0%)
Заголовок : Forced
Язык : Russian
Default : Да
Forced : Да

Текст #2
Идентификатор : 6
Формат : UTF-8
Идентификатор кодека : S_TEXT/UTF8
Идентификатор кодека/Информация : UTF-8 Plain Text
Продолжительность : 2 ч. 10 м.
Битрейт : 62 бит/сек
ElementCount : 1105
Размер потока : 59,2 Кбайт (0%)
Заголовок : Full
Язык : Russian
Default : Нет
Forced : Нет

Текст #3
Идентификатор : 7
Формат : UTF-8
Идентификатор кодека : S_TEXT/UTF8
Идентификатор кодека/Информация : UTF-8 Plain Text
Продолжительность : 2 ч. 13 м.
Битрейт : 39 бит/сек
ElementCount : 1163
Размер потока : 39,2 Кбайт (0%)
Заголовок : Full
Язык : English
Default : Нет
Forced : Нет

Меню
00:00:00.000 : en:Глава 01
00:00:24.191 : en:Глава 02
00:01:50.736 : en:Глава 03
00:08:28.800 : en:Глава 04
00:11:24.017 : en:Глава 05
00:18:34.405 : en:Глава 06
00:23:41.128 : en:Глава 07
00:27:38.365 : en:Глава 08
00:29:13.627 : en:Глава 09
00:33:19.581 : en:Глава 10
00:35:46.102 : en:Глава 11
00:36:48.665 : en:Глава 12
00:38:22.133 : en:Глава 13
00:40:18.124 : en:Глава 14
00:41:19.268 : en:Глава 15
00:42:41.726 : en:Глава 16
00:48:02.254 : en:Глава 17
00:50:21.185 : en:Глава 18
00:52:25.601 : en:Глава 19
00:53:58.694 : en:Глава 20
00:56:27.134 : en:Глава 21
01:00:56.945 : en:Глава 22
01:01:57.213 : en:Глава 23
01:05:26.714 : en:Глава 24
01:07:41.266 : en:Глава 25
01:09:07.643 : en:Глава 26
01:10:53.666 : en:Глава 27
01:15:19.890 : en:Глава 28
01:19:15.918 : en:Глава 29
01:20:38.125 : en:Глава 30
01:24:21.265 : en:Глава 31
01:27:57.189 : en:Глава 32
01:29:58.059 : en:Глава 33
01:33:41.074 : en:Глава 34
01:36:40.128 : en:Глава 35
01:38:36.202 : en:Глава 36
01:41:25.037 : en:Глава 37
01:42:57.671 : en:Глава 38
01:48:19.451 : en:Глава 39
01:51:00.112 : en:Глава 40
01:52:44.675 : en:Глава 41
01:54:23.523 : en:Глава 42
01:56:55.592 : en:Глава 43
02:02:21.543 : en:Глава 44
02:03:33.531 : en:Глава 45
02:05:20.304 : en:Глава 46
02:07:37.775 : en:Глава 47
02:08:57.730 : en:Глава 48
02:12:05.626 : en:Глава 49
02:13:48.020 : en:Глава 50




Скачать Звездные войны: Эпизод 3 - Месть Ситхов через торрент https://img15.lostpic.net/2020/03/29/be738340010c370af12b8df3ffd8cc1c.jpg Скачать, смотреть онлайн Звездные войны: Эпизод 3 - Месть Ситхов бесплантно в хорошем качестве Описание: Давным-давно, в далёкой-далёкой галактике бушуют клонические войны. Галактическая Республика и Конфедерация независимых систем ... 10 10 3
Торрент: Зарегистрирован [2020-03-31 19:02] · скачан: 52 раз
Статус: √ проверено
Размер: 21.55 GB
Как cкачать? Как скачать Звездные войны: Эпизод 3 - Месть Ситхов через торрент | UTorrent

% Раздел Тема Автор DL S | L
Ultra HD (UHD: 2K, 4K, 8K) [ 49.1 GB ] Звездные войны: Эпизод 3 - Месть Ситхов / Star Wars: Episode III - Revenge of the Sith | Лицензия | 2160p bober100 Скачать
2 | 0
Фильмы 2001-2005 [ 3.79 GB ] Звездные войны. Эпизод 3: Месть Ситхов / Star Wars: Episode III - Revenge of the Sith | Дубляж BD CEE | BDRip-AVC, Дубляж BD CEE, AVO morfyi Скачать
2 | 0
Фильмы (Blu-ray, BD-Remux, HDDVD) [ 21.99 GB ] Звездные войны: Эпизод 3 - Месть Ситхов / Star Wars: Episode III - Revenge of the Sith | | 1080p fallen_poet Скачать
1 | 0
Фильмы 2010 [ 3.74 GB ] Звездные войны: Эпизод 3 - Месть Ситхов / Star Wars: Episode III - Revenge of the Sith | | Звездные войны: Эпизод 3 - Месть Ситхов / Star Wars: Episode III - Revenge of the Sith (Джордж Лукас saidik Скачать
1 | 0

28-11-2019 20:33  


Отключить вcю реклaмy на сайте, в т.ч. и в плеере онлайн просмотра!

    Дорогой пользователь! Огромная просьба, поблагодарите релизера, оцените раздачу и оставьте свои комментарий, если Вы скачали Звездные войны: Эпизод 3 - Месть Ситхов через торрент бесплатно!!
    Комментировать посты могут только пользователи прошедшие не сложную регистрацию
    Показать сообщения:    


    Звездные войны: Эпизод 3 - Месть Ситхов через торрент
    Скачать бесплатно Звездные войны: Эпизод 3 - Месть Ситхов
    Звездные войны: Эпизод 3 - Месть Ситхов скачать торрент
    Звездные войны: Эпизод 3 - Месть Ситхов смотреть онлайн
    Cкачать фильм Звездные войны: Эпизод 3 - Месть Ситхов бесплатно
    Звездные войны: Эпизод 3 - Месть Ситхов скачать торрент в хорошем качестве
    Звездные войны: Эпизод 3 - Месть Ситхов смотреть онлайн бесплатно в хорошем качестве
    Вы не можете начинать темы
    Вы не можете отвечать на сообщения
    Вы не можете редактировать свои сообщения
    Вы не можете удалять свои сообщения
    Вы не можете голосовать в опросах
    Вы не можете прикреплять файлы к сообщениям
    Вы можете скачивать файлы
    Звездные войны: Эпизод 3 - Месть Ситхов / Star Wars: Episode III - Revenge of the Sith [2005, Фантастика, фэнтези, боевик, приключения, UHD BDRip 2160p] Дубляж [Лицензия] смотреть онлайн, скачать торрент picoco.icu