Всегда рабочее зеркало без VPN и Proxy просто перед .vidak.icu напиши любое слово или цифру, Пример http://s997.vidak.icu

MVO

2 сезон

2 сезон

1

1 сезон

iTunes

2 сезон

13

1 сезон

Распродажа

pack

Рекомендуем

Пиратка

30

ВАЖНО

RePack

MK11

RePack

jed

RePack

fifa19

RePack

RDR2

RePack

NEED FOR SPEED™ PAYBACK

Кинопоиск HD

6 сезон

 Острые козырьки 6 сезон

Все сериалы

все сериалы на PB.wtf

RePack

FAR CRY 5

Anonymous, нам критически не хватает 5601 руб. на оплату серверов и переферии за Апрель, помоги нам пожалуйста, вся надежда только на тебя. В благодарность мы отключим тебе всю рекламу на сайте!

×
  
Magnet ссылка

Альф / ALF / Сезон: 1-4 из 4 / Серии: 1-102 из 102 (Том Пэтчетт, Пол Фаско) [1986, Комедия, семейный, DVDRemux] 3x[MVO] (ОРТ, СТС , ICTV) piratbit.org

Альф через торрент piratbit.org

Раздают: 2 [ 0 KB/s ]
Размер: 98.19 GB | Добавлен: 1 мес. 21 д. назад | Торрент скачан:9 раз
Смотреть онлайн Альф | Скачать    Ребята, помогите собрать деньги на оплату серверов!!!

02-04-2020 17:24 Альф Скачать торрент  

Альф / ALF

Год выпуска: 1986-1990
Страна: США
Жанр: Комедия, семейный
Продолжительность: ~24 мин/серия

Перевод: Русский, профессиональный (многоголосый закадровый) ОРТ
Перевод 2: Русский, профессиональный (многоголосый закадровый) СТС
Перевод 3: Украинский, профессиональный (двухголосый закадровый) ICTV
Оригинальная аудиодорожка: английский

Режиссёр: Том Пэтчетт, Пол Фаско

В ролях: Макс Райт (Max Wright), Энн Шедин (Anne Schedeen), Андреа Элсон (Andrea Elson), Бенджи Грегори (Benji Gregory), Джон ЛаМотта (John LaMotta), Лиз Шеридан (Liz Sheridan), Джош Блэйк (Josh Blake), Дж.М. Дж. Баллок (JM J. Bullock), Пол Фаско (Paul Fusco) и др.

Описание: Его родина — планета Мелмак, место жительства — Лос-Анджелес. Он самоуверен, капризен и жаден. Он порядочный обжора, грубиян и ворчун. Он обожает кошек (в кулинарном смысле), его любопытство не знает границ, а разрушительные способности поражают воображение. Но помыслы его чисты, душа открыта, а сердце отзывчиво.
Его имя — Го́рдон Ша́муэй, ему 229 лет (родился 28 октября 1756 года по земному летосчислению). Он один из немногих уцелевших жителей с взорвавшейся планеты Мелмак, врезавшийся на своём космическом корабле в гараж обычной американской семьи Таннеров в сентябре 1986 года. Глава семьи Вилли Таннер назвал его «Альф» (сокращение от англ. Alien Life Form — внеземная форма жизни), что заменило Гордону его настоящее имя на очень долгое время. Таннеры приютили Альфа и скрывали его от так называемого Подразделения по изучению пришельцев. Он стал членом их семьи, и хотя пришелец не всегда ценил оказанную ему доброту, он искренне любил Вилли, его жену Кейт, их детей Линн и Брайана и даже кота Таннеров Лаки (с англ. — «Счастливчик»), за которым часто охотился — на Мелмаке коты считались деликатесом. Более того, пришельцу удалось познакомиться со многими людьми, помимо самих Таннеров. Приключения Альфа на Земле и составляют основу сюжета сериала.
Производство телекомпании Alien Productions. В США сериал продлился четыре сезона в период с 1986 по 1990 год. Показан в 80 странах мира.



Качество: DVDRemux
Формат: MKV
Видео: MPEG2, 720x576, 4:3, 25 fps, 4500-7500 kbps (VBR)
Аудио: AC3, 48 kHz, 2 ch (двойное моно), 224 kbps - RUS ОРТ
Аудио 2: AC3, 48 kHz, 2 ch (двойное моно), 224 kbps - RUS СТС
Аудио 3: AC3, 48 kHz, 2 ch (двойное моно), 192 kbps - UKR ICTV
Аудио 4: AC3, 48 kHz, 2 ch (двойное моно), 192 kbps - Original ENG

Субтитры: русские, английские

Реклама: Отсутствует
General
Unique ID : 272447981914507059226982345087419029014 (0xCCF7929A382E27A6F482B30A7E9E1616)
Complete name : E:\Temp\Альф\012 (S1E12) - Новый год.mkv
Format : Matroska
Format version : Version 4
File size : 979 MiB
Duration : 24 min 45 s
Overall bit rate mode : Variable
Overall bit rate : 5 528 kb/s
Movie name : ALF 012 (S1E12) Oh, Tannerbaum
Encoded date : UTC 2019-09-15 17:48:01
Writing application : mkvmerge v37.0.0 ('Leave It') 64-bit
Writing library : libebml v1.3.9 + libmatroska v1.5.2

Video
ID : 1
Format : MPEG Video
Format version : Version 2
Format profile : Main@Main
Format settings : CustomMatrix / BVOP
Format settings, BVOP : Yes
Format settings, Matrix : Custom
Format settings, GOP : M=3, N=15
Format settings, picture st : Frame
Codec ID : V_MPEG2
Codec ID/Info : MPEG 1 or 2 Video
Duration : 24 min 45 s
Bit rate mode : Variable
Bit rate : 4 690 kb/s
Maximum bit rate : 7 500 kb/s
Width : 720 pixels
Height : 576 pixels
Display aspect ratio : 4:3
Frame rate mode : Constant
Frame rate : 25.000 FPS
Standard : PAL
Color space : YUV
Chroma subsampling : 4:2:0
Bit depth : 8 bits
Scan type : Interlaced
Scan order : Top Field First
Compression mode : Lossy
Bits/(Pixel*Frame) : 0.452
Time code of first frame : 00:59:59:00
Time code source : Group of pictures header
GOP, Open/Closed : Open
GOP, Open/Closed of first f : Closed
Stream size : 830 MiB (85%)
Language : English
Default : Yes
Forced : No

Audio #1
ID : 2
Format : AC-3
Format/Info : Audio Coding 3
Commercial name : Dolby Digital
Codec ID : A_AC3
Duration : 24 min 45 s
Bit rate mode : Constant
Bit rate : 224 kb/s
Channel(s) : 2 channels
Channel layout : L R
Sampling rate : 48.0 kHz
Frame rate : 31.250 FPS (1536 SPF)
Bit depth : 16 bits
Compression mode : Lossy
Stream size : 39.7 MiB (4%)
Title : OPT
Language : Russian
Service kind : Complete Main
Default : Yes
Forced : No

Audio #2
ID : 3
Format : AC-3
Format/Info : Audio Coding 3
Commercial name : Dolby Digital
Codec ID : A_AC3
Duration : 24 min 43 s
Bit rate mode : Constant
Bit rate : 224 kb/s
Channel(s) : 2 channels
Channel layout : L R
Sampling rate : 48.0 kHz
Frame rate : 31.250 FPS (1536 SPF)
Bit depth : 16 bits
Compression mode : Lossy
Stream size : 39.6 MiB (4%)
Title : CTC
Language : Russian
Service kind : Complete Main
Default : No
Forced : No

Audio #3
ID : 4
Format : AC-3
Format/Info : Audio Coding 3
Commercial name : Dolby Digital
Codec ID : A_AC3
Duration : 24 min 43 s
Bit rate mode : Constant
Bit rate : 192 kb/s
Channel(s) : 2 channels
Channel layout : L R
Sampling rate : 48.0 kHz
Frame rate : 31.250 FPS (1536 SPF)
Bit depth : 16 bits
Compression mode : Lossy
Stream size : 34.0 MiB (3%)
Title : ICTV
Language : Ukrainian
Service kind : Complete Main
Default : No
Forced : No

Audio #4
ID : 5
Format : AC-3
Format/Info : Audio Coding 3
Commercial name : Dolby Digital
Codec ID : A_AC3
Duration : 24 min 45 s
Bit rate mode : Constant
Bit rate : 192 kb/s
Channel(s) : 2 channels
Channel layout : L R
Sampling rate : 48.0 kHz
Frame rate : 31.250 FPS (1536 SPF)
Bit depth : 16 bits
Compression mode : Lossy
Stream size : 34.0 MiB (3%)
Language : English
Service kind : Complete Main
Default : No
Forced : No

Text #1
ID : 6
Format : UTF-8
Codec ID : S_TEXT/UTF8
Codec ID/Info : UTF-8 Plain Text
Duration : 24 min 33 s
Bit rate : 138 b/s
Count of elements : 436
Stream size : 25.0 KiB (0%)
Title : Russian
Language : Russian
Default : No
Forced : No

Text #2
ID : 7
Format : UTF-8
Codec ID : S_TEXT/UTF8
Codec ID/Info : UTF-8 Plain Text
Duration : 24 min 40 s
Bit rate : 81 b/s
Count of elements : 451
Stream size : 14.8 KiB (0%)
Title : English
Language : English
Default : No
Forced : No
piratbit.org



Скачать Альф через торрент http://i47.fastpic.ru/big/2013/0726/4e/744ff794e61a8bb0e86fa0ae6a85fb4e.jpg Скачать, смотреть онлайн Альф бесплантно в хорошем качестве Описание: Его родина — планета Мелмак, место жительства — Лос-Анджелес. Он самоуверен, капризен и жаден. Он порядочный обжора, грубиян и ... 10 10 8
Торрент: Зарегистрирован [2022-03-30 12:54] · скачан: 9 раз
Статус: T временная
Размер: 98.19 GB
Как cкачать? Как скачать Альф через торрент | UTorrent

% Раздел Тема Автор DL S | L
Зарубежные сериалы [ 18.73 GB ] Альф / ALF / Сезон: 1-4 / Серии: 102 из 102 [1986 DVDRip] MVO Ворон Скачать
1 | 0

28-11-2019 20:33  

Отключить всю рекламу на сайте

30-03-2022 13:08 Альф Скачать торрент  

помню хороший сериал был смотрел каждый день по стсpiratbit.org



30-03-2022 14:52 Альф Скачать торрент  

Ramzes писал(а):

помню хороший сериал был смотрел каждый день по стс

Былое детство,эхх.........piratbit.org



30-03-2022 17:50 Альф Скачать торрент  

классpiratbit.org



31-03-2022 07:05 Альф Скачать торрент  

говорят, в процессе съемок ни одной кошки не было съедено)))piratbit.org



    Дорогой пользователь! Огромная просьба, поблагодарите релизера, оцените раздачу и оставьте свои комментарий, если Вы скачали Альф через торрент бесплатно!
    Комментировать посты могут только пользователи прошедшие не сложную регистрацию
    Показать сообщения:    

    Альф через торрент
    Скачать бесплатно Альф
    Альф скачать торрент
    Альф смотреть онлайн
    Cкачать фильм Альф бесплатно
    Альф скачать торрент в хорошем качестве
    Альф смотреть онлайн бесплатно в хорошем качестве


    Вы не можете начинать темы
    Вы не можете отвечать на сообщения
    Вы не можете редактировать свои сообщения
    Вы не можете удалять свои сообщения
    Вы не можете голосовать в опросах
    Вы не можете прикреплять файлы к сообщениям
    Вы можете скачивать файлы