1 сезон

1 сезон

iTunes

1

КиноПоиск HD

Кинопоиск HD

iTunes

13

1 сезон

RePack

30

Новинка

ВАЖНО

ИГРА 18+

pack

RePack

MK11
pack

Легкие деньги

RePack

jed

RePack

fifa19

RePack

RDR2

RePack

NEED FOR SPEED™ PAYBACK

4 сезон

9 сезон

Бесстыжие 9 сезон

Все сериалы

все сериалы на PB.wtf

RePack

FAR CRY 5
  
Magnet ссылка

Энигма / Aenigma (Лучио Фульчи) [1987, ужасы, триллер, BDRip 1080p by msltel] MVO, AVO piratbit.org

Энигма через торрент piratbit.org

Размер: 11.53 GB | Добавлен: 1 год назад | Торрент скачан:2 раза
Скачать  

04-04-2020 06:02 Энигма Скачать торрент  

Название: Энигма
Оригинальное название: Aenigma
Год выпуска: 1987
Страна: Италия, Югославия
Жанр: ужасы, триллер
Продолжительность: 01:29:12
Перевод: профессиональный многоголосый, авторский
Режиссер: Лучио Фульчи
В ролях: Джаред Мартин, Лара Насзински, Улли Рейнтхалер, Софи д'Аулан, Дженнифер Науд, Рикардо Акерби, Кэти Уайз, Драган Бьелогрлич, Лилиана Благоевич, Лучио Фульчи, Сабрина Сиани

О фильме: Кэти не любили в школе. Над ней смеялись и всячески издевались, считали её занудой и попросту неумехой. Мало кто представлял, что одна из шуток может завести слишком далеко, став причиной кровавой мести и целой череды ужасных событий...



Качество: BDRip 1080p
Формат: MKV
Видео: MPEG-4 AVC, 16 Mбит/с, 1800x1080
Аудио 1: русский, AC3, 224 kbps, 2 ch, 48 kHz [закадровый многоголосый, Синема-Престиж]
Аудио 2: русский, AC3, 192 kbps, 2 ch, 48 kHz [авторский, Юрий Живов]
Аудио 3: итальянский, DTS, 2049 kbps, 2 ch, 48 kHz [оригинал]
Субтитры 1: русские
Субтитры 2: английские
Главы/чаптеры
Общее
Уникальный идентификатор : 203734590784022710244825296007155188429 (0x9945DADB5F1855128E1EF1895E1882CD)
Полное имя : D:\Video\Энигма.1987.BDRip 1080p by msltel.mkv
Формат : Matroska
Версия формата : Version 4
Размер файла : 11,5 Гбайт
Продолжительность : 1 ч. 29 м.
Общий поток : 18,5 Мбит/сек
Название фильма : Rip by msltel
Дата кодирования : UTC 2020-04-04 02:27:55
Программа кодирования : mkvmerge v8.2.0 ('World of Adventure') 64bit
Библиотека кодирования : libebml v1.3.1 + libmatroska v1.4.2

Видео
Идентификатор : 1
Формат : AVC
Формат/Информация : Advanced Video Codec
Профиль формата : High@L4.1
Настройки формата : CABAC / 4 Ref Frames
Параметр CABAC формата : Да
Параметр RefFrames формата : 4 кадра
Идентификатор кодека : V_MPEG4/ISO/AVC
Продолжительность : 1 ч. 29 м.
Битрейт : 16,0 Мбит/сек
Ширина : 1 800 пикселей
Высота : 1 080 пикселей
Соотношение сторон : 5:3
Режим частоты кадров : Постоянный
Частота кадров : 23,976 (24000/1001) кадра/сек
Цветовое пространство : YUV
Субдискретизация насыщенности : 4:2:0
Битовая глубина : 8 бит
Тип развёртки : Прогрессивная
Бит/(Пиксели*Кадры) : 0.344
Размер потока : 9,99 Гбайт (87%)
Библиотека кодирования : x264 core 159 r2991 1771b55
Настройки программы : cabac=1 / ref=4 / deblock=1:-2:-2 / analyse=0x3:0x113 / me=umh / subme=11 / psy=1 / psy_rd=1.00:0.15 / mixed_ref=1 / me_range=32 / chroma_me=1 / trellis=2 / 8x8dct=1 / cqm=0 / deadzone=21,11 / fast_pskip=0 / chroma_qp_offset=-3 / threads=6 / lookahead_threads=1 / sliced_threads=0 / nr=0 / decimate=1 / interlaced=0 / bluray_compat=0 / constrained_intra=0 / bframes=13 / b_pyramid=2 / b_adapt=2 / b_bias=0 / direct=1 / weightb=1 / open_gop=0 / weightp=2 / keyint=230 / keyint_min=23 / scenecut=40 / intra_refresh=0 / rc_lookahead=40 / rc=crf / mbtree=1 / crf=20.0 / qcomp=0.60 / qpmin=0 / qpmax=69 / qpstep=4 / vbv_maxrate=50000 / vbv_bufsize=62500 / crf_max=0.0 / nal_hrd=none / filler=0 / ip_ratio=1.40 / aq=1:1.00
Язык : Italian
Default : Да
Forced : Нет

Аудио #1
Идентификатор : 2
Формат : AC-3
Формат/Информация : Audio Coding 3
Коммерческое название : Dolby Digital
Идентификатор кодека : A_AC3
Продолжительность : 1 ч. 29 м.
Вид битрейта : Постоянный
Битрейт : 224 Кбит/сек
Каналы : 2 канала
Channel layout : L R
Частота : 48,0 КГц
Частота кадров : 31,250 кадров/сек (1536 SPF)
Метод сжатия : С потерями
Размер потока : 143 Мбайт (1%)
Заголовок : MVO Синема-Престиж
Язык : Russian
Service kind : Complete Main
Default : Да
Forced : Нет

Аудио #2
Идентификатор : 3
Формат : AC-3
Формат/Информация : Audio Coding 3
Коммерческое название : Dolby Digital
Идентификатор кодека : A_AC3
Продолжительность : 1 ч. 29 м.
Вид битрейта : Постоянный
Битрейт : 192 Кбит/сек
Каналы : 2 канала
Channel layout : L R
Частота : 48,0 КГц
Частота кадров : 31,250 кадров/сек (1536 SPF)
Метод сжатия : С потерями
Размер потока : 123 Мбайт (1%)
Заголовок : Юрий Живов
Язык : Russian
Service kind : Complete Main
Default : Нет
Forced : Нет

Аудио #3
Идентификатор : 4
Формат : DTS
Формат/Информация : Digital Theater Systems
Идентификатор кодека : A_DTS
Продолжительность : 1 ч. 29 м.
Вид битрейта : Постоянный
Битрейт : 2 049 Кбит/сек
Каналы : 2 канала
Channel layout : L R
Частота : 48,0 КГц
Частота кадров : 93,750 кадра/сек (512 SPF)
Битовая глубина : 16 бит
Метод сжатия : С потерями
Размер потока : 1,28 Гбайт (11%)
Заголовок : original
Язык : Italian
Default : Нет
Forced : Нет

Текст #1
Идентификатор : 5
Формат : UTF-8
Идентификатор кодека : S_TEXT/UTF8
Идентификатор кодека/Информация : UTF-8 Plain Text
Продолжительность : 1 ч. 26 м.
Битрейт : 65 бит/сек
Count of elements : 724
Размер потока : 41,2 Кбайт (0%)
Заголовок : русские
Язык : Russian
Default : Нет
Forced : Нет

Текст #2
Идентификатор : 6
Формат : UTF-8
Идентификатор кодека : S_TEXT/UTF8
Идентификатор кодека/Информация : UTF-8 Plain Text
Продолжительность : 1 ч. 25 м.
Битрейт : 31 бит/сек
Count of elements : 641
Размер потока : 19,7 Кбайт (0%)
Заголовок : английские
Язык : English
Default : Нет
Forced : Нет

Меню
00:00:00.000 : en:Chapter 1
00:09:08.548 : en:Chapter 2
00:20:17.216 : en:Chapter 3
00:34:21.059 : en:Chapter 4
00:45:56.754 : en:Chapter 5
00:55:43.340 : en:Chapter 6
01:04:39.876 : en:Chapter 7
01:14:52.488 : en:Chapter 8
01:29:10.345 : en:Chapter 9
piratbit.org



Скачать Энигма через торрент https://b.radikal.ru/b27/2004/52/9afff3fc554d.jpg Скачать фильм Энигма через торрент бесплантно в хорошем качестве О фильме: Кэти не любили в школе. Над ней смеялись и всячески издевались, считали её занудой и попросту неумехой. Мало кто представлял, что ... 5 10 1
Торрент: Зарегистрирован [2020-04-04 06:02] · скачан: 2 раз
Статус: √ проверено
Размер: 11.53 GB
Как cкачать? Как скачать Энигма через торрент | UTorrent

% Раздел Тема Автор DL S | L
Арт-хаус и авторское кино [ 4.13 GB ] Энигма / Aenigma [1987 BDRip 720p by msltel] MVO AVO msltel Скачать
1 | 0
Арт-хаус и авторское кино [ 2.38 GB ] Энигма / Aenigma [1987 BDRip-AVC by msltel] MVO AVO msltel Скачать
1 | 0

28-11-2019 20:33  

Отключить всю рекламу на сайте

    Дорогой пользователь! Огромная просьба, поблагодарите релизера, оцените раздачу и оставьте свои комментарий, если Вы скачали Энигма через торрент бесплатно! Внесите свою лепту в развитие PiratBit!
    Комментировать посты могут только пользователи прошедшие не сложную регистрацию
    Показать сообщения:    

    Энигма через торрент
    Скачать бесплатно Энигма
    Энигма скачать торрент
    Энигма смотреть онлайн
    Cкачать фильм Энигма бесплатно
    Энигма скачать торрент в хорошем качестве
    Энигма смотреть онлайн бесплатно в хорошем качестве


    Вы не можете начинать темы
    Вы не можете отвечать на сообщения
    Вы не можете редактировать свои сообщения
    Вы не можете удалять свои сообщения
    Вы не можете голосовать в опросах
    Вы не можете прикреплять файлы к сообщениям
    Вы можете скачивать файлы