Доктор Стрэндж

Лицензия

Добыча

Дубляж

Уэнсдэй

1 сезон

Тор

Дубляж

В эфире

Дубляж

Там, где раки поют

MVO

Властелин колец

1 сезон

Deluxe

pack

Рекомендуем

30

Пиратка

ВАЖНО

ВАЖНО

Ghostwire

Пиратка

jed

RePack

nioh2

RePack

RDR2

RePack

NEED FOR SPEED™ PAYBACK

RePack

скачать торрент

Кинопоиск HD

Острые козырьки 6 сезон

6 сезон

FAR CRY 6

RePack

скачать торрент

Лицензия

скачать торрент

MVO

1

1 сезон

скачать торрент

1 сезон

скачать торрент

Лицензия

  

Вне игры / The Way Back (Гэвин О Коннор) [2020, драма, спорт, WEB-DLRip-AVC] MVO [HDRezka] - ExKinoRay

Вне игры через торрент piratbit.org

Качают: 1 [ 0 KB/s ]
Размер: 2.27 GB | Добавлен: 2 года 8 мес. назад | Торрент скачан:446 раз
Смотреть онлайн | Скачать   

07-04-2020 15:20 Вне игры Скачать торрент  

Название: Вне игры
Оригинальное название: The Way Back
Год выхода: 2020
Жанр: Драма, спорт
Режиссер: Гэвин О’Коннор
В ролях: Бен Аффлек, Янина Гаванкар, Микейла Уоткинс, Хэйз МакАртур, Да Винчи, Рэйчел Карпани, Тодд Стэшвик, Марлин Форте, Инка Кито, Глинн Тёрмен

Описание: Джек Каннингэм в школе был восходящей баскетбольной звездой, но в какой-то момент покончил со спортом. Из-за пристрастия к таблеткам и алкоголю он в одночасье лишился всего — славы, денег и семьи. Вскоре жизнь даёт Джеку второй шанс — он берётся тренировать баскетбольную команду своей родной школы, которую все считают откровенными неудачниками.

rating

Страна: США
Студия: Warner Bros., Spyglass Media Group, BRON Studios
Продолжительность: 01:48:22
Перевод: Профессиональный многоголосый | HDRezka

Формат: MKV
Качество: WEB-DLRip-AVC
Видео: MPEG-4 AVC, 1024x426 (2.40:1), 23.976 fps, 2550 Kbps, 0.244 bit/pixel
Аудио : 48 kHz, AC3, 5.1, 448 Kbps | Дубляж | RUS |
Субтитры: Русские (Forced, Full (FOCS)), английские
General
Unique ID : 251310282348681408803164091770435484842 (0xBD10998D32E8A0519E35BF3C8E0B3CAA)
Complete name : F:\The.Way.Back.2020.AMZN.WEB-DL.AVC.ExKinoRay.mkv
Format : Matroska
Format version : Version 2
File size : 2.27 GiB
Duration : 1 h 48 min
Overall bit rate : 2 997 kb/s
Movie name : The Way Back 2020 from ExKinoRay
Encoded date : UTC 2020-04-07 03:48:00
Writing application : mkvmerge v5.6.0 ('Kenya Kane') built on May 27 2012 16:44:04
Writing library : libebml v1.2.3 + libmatroska v1.3.0

Video
ID : 1
Format : AVC
Format/Info : Advanced Video Codec
Format profile : High@L4.1
Format settings, CABAC : Yes
Format settings, ReFrames : 12 frames
Codec ID : V_MPEG4/ISO/AVC
Duration : 1 h 48 min
Bit rate : 2 550 kb/s
Width : 1 024 pixels
Height : 426 pixels
Display aspect ratio : 2.40:1
Frame rate mode : Constant
Frame rate : 23.976 (23976/1000) FPS
Color space : YUV
Chroma subsampling : 4:2:0
Bit depth : 8 bits
Scan type : Progressive
Bits/(Pixel*Frame) : 0.244
Stream size : 1.88 GiB (83%)
Title : Enigma
Writing library : x264 core 152 r2851 ba24899
Encoding settings : cabac=1 / ref=12 / deblock=1:-2:-2 / analyse=0x3:0x113 / me=umh / subme=10 / psy=1 / psy_rd=1.02:0.05 / mixed_ref=1 / me_range=32 / chroma_me=1 / trellis=2 / 8x8dct=1 / cqm=0 / deadzone=21,11 / fast_pskip=0 / chroma_qp_offset=-3 / threads=12 / lookahead_threads=2 / sliced_threads=0 / nr=0 / decimate=0 / interlaced=0 / bluray_compat=0 / constrained_intra=0 / bframes=9 / b_pyramid=2 / b_adapt=2 / b_bias=0 / direct=3 / weightb=1 / open_gop=0 / weightp=2 / keyint=240 / keyint_min=23 / scenecut=40 / intra_refresh=0 / rc=2pass / mbtree=0 / bitrate=2550 / ratetol=1.0 / qcomp=0.60 / qpmin=0 / qpmax=51 / qpstep=4 / cplxblur=20.0 / qblur=0.5 / ip_ratio=1.40 / pb_ratio=1.30 / aq=1:1.00
Language : English
Default : Yes
Forced : No
Color range : Limited
Color primaries : BT.709
Transfer characteristics : BT.709
Matrix coefficients : BT.709

Audio
ID : 2
Format : AC-3
Format/Info : Audio Coding 3
Mode extension : CM (complete main)
Format settings, Endianness : Big
Codec ID : A_AC3
Duration : 1 h 48 min
Bit rate mode : Constant
Bit rate : 448 kb/s
Channel(s) : 6 channels
Channel positions : Front: L C R, Side: L R, LFE
Sampling rate : 48.0 kHz
Frame rate : 31.250 FPS (1536 spf)
Compression mode : Lossy
Stream size : 347 MiB (15%)
Title : MVO (HDRezka)
Language : Russian
Default : Yes
Forced : No

Text #1
ID : 3
Format : UTF-8
Codec ID : S_TEXT/UTF8
Codec ID/Info : UTF-8 Plain Text
Title : Forced
Language : Russian
Default : Yes
Forced : Yes

Text #2
ID : 4
Format : UTF-8
Codec ID : S_TEXT/UTF8
Codec ID/Info : UTF-8 Plain Text
Title : Full (Focs)
Language : Russian
Default : No
Forced : No

Text #3
ID : 5
Format : UTF-8
Codec ID : S_TEXT/UTF8
Codec ID/Info : UTF-8 Plain Text
Title : Full
Language : English
Default : No
Forced : No



Релиз от: VK релиз-группы

Автор релиза: Enigma



Скачать Вне игры через торрент http://c.radikal.ru/c11/2003/87/50e62aea9787.jpg Скачать, смотреть онлайн Вне игры бесплантно в хорошем качестве Описание: Джек Каннингэм в школе был восходящей баскетбольной звездой, но в какой-то момент покончил со спортом. Из-за пристрастия к ... 9.9 10 8
Info! Золотая раздача, скачанное не засчитывается.
Торрент: Зарегистрирован [2020-04-07 15:20] · скачан: 446 раз
Статус: √ проверено
Размер: 2.27 GB
Как cкачать? Как скачать Вне игры через торрент | UTorrent

28-11-2019 20:33  


Отключить вcю реклaмy на сайте, в т.ч. и в плеере онлайн просмотра!

    Дорогой пользователь! Огромная просьба, поблагодарите релизера, оцените раздачу и оставьте свои комментарий, если Вы скачали Вне игры через торрент бесплатно!!
    Комментировать посты могут только пользователи прошедшие не сложную регистрацию
    Показать сообщения:    


    Вне игры через торрент
    Скачать бесплатно Вне игры
    Вне игры скачать торрент
    Вне игры смотреть онлайн
    Cкачать фильм Вне игры бесплатно
    Вне игры скачать торрент в хорошем качестве
    Вне игры смотреть онлайн бесплатно в хорошем качестве
    Вы не можете начинать темы
    Вы не можете отвечать на сообщения
    Вы не можете редактировать свои сообщения
    Вы не можете удалять свои сообщения
    Вы не можете голосовать в опросах
    Вы не можете прикреплять файлы к сообщениям
    Вы можете скачивать файлы
    Вне игры / The Way Back [2020, драма, спорт, WEB-DLRip-AVC] MVO [HDRezka] - ExKinoRay смотреть онлайн, скачать торрент picoco.icu