Ссылка на приватное зеркало всего за 1$. Внимание количество ограничено!!!

iTunes

iTunes

iTunes

1

iTunes

iTunes

iTunes

iTunes

iTunes

30
pack

$ от Little Big

ВАЖНО

!!Акция!!

Alien_RageХит недели

RePack

Resident Evil 21

ИГРА 18+

pack

RePack

jed

!!Акция!!

Alien_Rage

RePack

fifa19

RePack

Assassins Creed: Odyssey

RePack

NEED FOR SPEED™ PAYBACK

4 сезон

9 сезон

Бесстыжие 9 сезон

Все сериалы

все сериалы на PB.wtf

RePack

FAR CRY 5
  

Харли Квинн / Harley Quinn / Сезон: 2 / Серии: 1-13 из 13 (Сесилия Аранович, Хуан Хосе Меса-Леон, Бен Джонс) [2020, Мультсериал, фантастика, фэнтези, боевик, комедия, криминал, детектив, WEB-DL 720p] MVO [Jaskier] piratbit.org

Харли Квинн через торрент piratbit.org

Размер: 7.83 GB | Добавлен: 9 д. назад | Торрент скачан:4 раза
Скачать  

07-04-2020 17:07 Харли Квинн Скачать торрент  

Харли Квинн | Harley Quinn
Год выпуска: 2020
Страна: США
Жанр: Мультсериал, фантастика, фэнтези, боевик, комедия, криминал, детектив
Продолжительность: ~ 00:23:00
Перевод: Профессиональный (многоголосый) | Jaskier
Субтитры: Английские

Режиссер: Сесилия Аранович, Хуан Хосе Меса-Леон, Бен Джонс

rating

В ролях: Кейли Куоко, Лэйк Белл, Алан Тьюдик, Дидрих Бадер, Джим Рэш, Рон Фанчес, Кристофер Мелони, Тони Хейл, Дж.Б. Смув, Джейсон Александер

Описание: Харли Квинн разорвала отношения с Джокером и теперь пытается самостоятельно стать королевой преступного мира Готэма.

Качество: WEB-DL 720p
Формат: | X264 | MKV |

Видео: XviD, ~ 3000 kbps, 1280x720, 23.976 fps
Аудио#1: AC3, 6 ch, 384 kbps - RUS
Аудио#2: AC3, 6 ch, 384 kbps - ENG
скриншот  скриншот  скриншот  

Общее
Уникальный идентификатор : 241745896001836933897079241379160604499 (0xB5DE90E5A7D3FFB6A6C91D87DEE53F53)
Полное имя : C:\Harley Quinn. Season 2 (WEB-DL l 720p l Jaskier)\Harley.Quinn.S02E01.720p.WEB-DL.DD5.1.H.264-Jaskier.mkv
Формат : Matroska
Версия формата : Version 2
Размер файла : 616 Мбайт
Продолжительность : 22 м. 55 с.
Общий поток : 3757 Кбит/сек
Дата кодирования : UTC 2020-04-07 16:35:16
Программа кодирования : mkvmerge v7.8.0 ('River Man') 32bit built on Apr 3 2015 12:11:22
Библиотека кодирования : libebml v1.3.1 + libmatroska v1.4.2

Видео
Идентификатор : 1
Формат : AVC
Формат/Информация : Advanced Video Codec
Профиль формата : Baseline@L3.1
Настройки формата : 3 Ref Frames
Параметр CABAC формата : Нет
Параметр RefFrames формата : 3 кадра
Параметр GOP формата : M=1, N=48
Идентификатор кодека : V_MPEG4/ISO/AVC
Продолжительность : 22 м. 55 с.
Битрейт : 2914 Кбит/сек
Ширина : 1280 пикселей
Высота : 720 пикселей
Соотношение сторон : 16:9
Режим частоты кадров : Постоянный
Частота кадров : 23,976 (24000/1001) кадра/сек
Цветовое пространство : YUV
Субдискретизация насыщенности : 4:2:0
Битовая глубина : 8 бит
Тип развёртки : Прогрессивная
Бит/(Пиксели*Кадры) : 0.132
Размер потока : 478 Мбайт (78%)
Библиотека кодирования : Zencoder Video Encoding System
Язык : English
Default : Да
Forced : Нет
Цветовой диапазон : Limited
Основные цвета : BT.709
Характеристики трансфера : BT.709
Коэффициенты матрицы : BT.709

Аудио #1
Идентификатор : 2
Формат : AC-3
Формат/Информация : Audio Coding 3
Коммерческое название : Dolby Digital
Идентификатор кодека : A_AC3
Продолжительность : 22 м. 55 с.
Вид битрейта : Постоянный
Битрейт : 384 Кбит/сек
Каналы : 6 каналов
ChannelLayout : L R C LFE Ls Rs
Частота : 48,0 КГц
Частота кадров : 31,250 кадров/сек (1536 SPF)
Битовая глубина : 16 бит
Метод сжатия : С потерями
Размер потока : 63,0 Мбайт (10%)
Заголовок : Jaskier
Язык : Russian
ServiceKind/String : Complete Main
Default : Да
Forced : Нет

Аудио #2
Идентификатор : 3
Формат : AC-3
Формат/Информация : Audio Coding 3
Коммерческое название : Dolby Digital
Идентификатор кодека : A_AC3
Продолжительность : 22 м. 55 с.
Вид битрейта : Постоянный
Битрейт : 384 Кбит/сек
Каналы : 6 каналов
ChannelLayout : L R C LFE Ls Rs
Частота : 48,0 КГц
Частота кадров : 31,250 кадров/сек (1536 SPF)
Битовая глубина : 16 бит
Метод сжатия : С потерями
Размер потока : 63,0 Мбайт (10%)
Язык : English
ServiceKind/String : Complete Main
Default : Нет
Forced : Нет

Текст
Идентификатор : 4
Формат : UTF-8
Идентификатор кодека : S_TEXT/UTF8
Идентификатор кодека/Информация : UTF-8 Plain Text
Язык : English
Default : Нет
Forced : Нет

Внимание! Раздача ведётся путём добавления новых серий; при каждом добавлении создаётся новый торрент. Чтобы начать докачку новой серии, пользователям необходимо сделать следующее:
(1) остановить скачивание,
(2) удалить старый торрент у себя из клиента (старые серии удалять не надо),
(3) скачать новый торрент и запустить его у себя в клиенте вместо старого, при этом указать клиенту путь в старую папку куда и должно происходить скачивание новых серий.

Ваш клиент при этом должен произвести хеширование (проверку) старой папки (если не производит сам - помогите ему сделать это), и будет докачивать только те серии которых у вас ещё нет. Старые серии при этом не удаляются, а продолжают раздаваться!

Eсли вы уже удалили старые серии, то предотвратить повторную закачку старых серий можно, отжав галочку в соответствующих местах при запуске нового торрента. По возможности, желательно не удалять старые серии как можно дольше чтобы релизёр не столько продолжал раздавать старые серии, а смог сконцентрироваться на новых.
piratbit.org



Скачать Харли Квинн через торрент https://img15.lostpic.net/2020/04/07/fa0c1a956cf0ca228fa5704c1e163607.png Скачать фильм Харли Квинн через торрент бесплантно в хорошем качестве Описание: Харли Квинн разорвала отношения с Джокером и теперь пытается самостоятельно стать королевой преступного мира ... 10 10 2
Торрент: Зарегистрирован [2020-06-29 20:13] · скачан: 4 раз
Статус: √ проверено
Размер: 7.83 GB
Как cкачать? Как скачать Харли Квинн через торрент | qTorrent

% Раздел Тема Автор DL S | L
Мультсериалы [ 4.99 GB ] Харли Квинн / Harley Quinn / Сезон: 2 / Серии: 1-13 из 13 [2020 WEB-DLRip] DUB [The Kitchen Russia] bober100 Скачать
1 | 0
Мультсериалы [ 23.65 GB ] Харли Квинн / Harley Quinn / Сезон: 2 / Серии: 1-13 из 13 [2020 UHD WEB-DL 2160p ] DUB [The Kitchen Russia] +MVO [Good People] bober100 Скачать
1 | 0
Мультсериалы [ 12.5 GB ] Харли Квинн / Harley Quinn / Сезон: 2 / Серии: 1-13 из 13 [2020 WEB-DL 1080p] DUB [The Kitchen Russia] +MVO [Good People] bober100 Скачать
2 | 1
Мультсериалы [ 2.89 GB ] Харли Квинн / Harley Quinn / Сезон: 2 / Серии: 1-3 из 13 [2020 WEB-DL 1080p] MVO [TVShows] bober100 Скачать
1 | 0
Мультсериалы [ 11.97 GB ] Харли Квинн / Harley Quinn / Сезон: 2 / Серии: 1-13 из 13 [2020 WEB-DL 1080p] MVO [Jaskier] bober100 Скачать
2 | 1
Мультсериалы [ 3.48 GB ] Харли Квинн / Harley Quinn / Сезон: 2 / Серии: 1-13 из 13 [2020 WEB-DLRip] MVO [Jaskier] bober100 Скачать
1 | 0

28-11-2019 20:33  

Отключить всю рекламу на сайте

    Дорогой пользователь! Огромная просьба, поблагодарите релизера, оцените раздачу и оставьте свои комментарий, если Вы скачали Харли Квинн через торрент бесплатно! Внесите свою лепту в развитие PiratBit!
    Комментировать посты могут только пользователи прошедшие не сложную регистрацию
    Показать сообщения:    

    Харли Квинн через торрент
    Скачать бесплатно Харли Квинн
    Харли Квинн скачать торрент
    Харли Квинн смотреть онлайн
    Cкачать фильм Харли Квинн бесплатно
    Харли Квинн скачать торрент в хорошем качестве
    Харли Квинн смотреть онлайн бесплатно в хорошем качестве


    Вы не можете начинать темы
    Вы не можете отвечать на сообщения
    Вы не можете редактировать свои сообщения
    Вы не можете удалять свои сообщения
    Вы не можете голосовать в опросах
    Вы не можете прикреплять файлы к сообщениям
    Вы можете скачивать файлы