Доктор Стрэндж

Лицензия

Добыча

Дубляж

Уэнсдэй

1 сезон

Тор

Дубляж

В эфире

Дубляж

Там, где раки поют

MVO

Властелин колец

1 сезон

Deluxe

pack

Рекомендуем

30

Пиратка

ВАЖНО

ВАЖНО

Ghostwire

Пиратка

jed

RePack

nioh2

RePack

RDR2

RePack

NEED FOR SPEED™ PAYBACK

RePack

скачать торрент

Кинопоиск HD

Острые козырьки 6 сезон

6 сезон

FAR CRY 6

RePack

скачать торрент

Лицензия

скачать торрент

MVO

1

1 сезон

скачать торрент

1 сезон

скачать торрент

Лицензия

  

Гретель и Гензель / Gretel & Hansel (Оз Перкинс) [2020 г., ужасы, фэнтези, триллер, WEB-DLRip, Дубляж "iTunes"]

Гретель и Гензель через торрент piratbit.org

Раздают: 1 [ 0 KB/s ]
Размер: 693 MB | Добавлен: 2 года 8 мес. назад | Торрент скачан:205 раз
Смотреть онлайн | Скачать   

07-04-2020 18:35 Гретель и Гензель Скачать торрент  

Гретель и Гензель / Gretel & Hansel
Год выпуска: 2020
Страна: Канада, Ирландия, США, ЮАР / Automatik Entertainment, Orion Pictures, BRON Studios
Жанр: ужасы, фэнтези, триллер
Продолжительность: 01:23:45
Перевод: Дубляж (iTunes)

Режиссер: Оз Перкинс

rating

В ролях: София Лиллис, Сэмми Лики, Чарльз Бабалола, Элис Крайдж, Джессика Де Гау, Беатрикс Перкинс, Йен Кенни, Абдул Альшариф, Мануэль Помбо

Описание: Новая версия старинной сказки братьев Гримм о зловещих приключениях брата и сестры в Очарованном лесу. В поисках еды голодные Грета и Гензель отправляются в лес, не подозревая, что им предстоит отведать обед дьявольской кухни и пройти все круги ада...

Качество: WEB-DLRip
Формат: AVI
Видео кодек: DivX
Аудио кодек: MP3
Видео: 640x360 (1.78:1), 25 fps, DivX Codec 4.x ~1019 kbps avg, 0.18 bit/pixe
Аудио1: 48 kHz, MPEG Layer 3, 2 ch, ~128.00 kbps avg
скриншот   скриншот   скриншот   скриншот  

Общее
Полное имя : F:\ФИЛЬМЫ\Гретель и Гензель.2020.D.WEB-DLRip.avi
Формат : AVI
Формат/Информация : Audio Video Interleave
Размер файла : 693 Мбайт
Продолжительность : 1 ч. 23 м.
Общий поток : 1157 Кбит/сек
Программа кодирования : VirtualDubMod 1.5.10.3 | www.virtualdub-fr.org || (build 2550/release)
Библиотека кодирования : VirtualDubMod build 2550/release

Видео
Идентификатор : 0
Формат : MPEG-4 Visual
Профиль формата : Advanced Simple@L5
Настройки формата : BVOP3 / GMC3 / QPel
Параметр BVOP формата : 3
Параметр QPel формата : Да
Параметр GMC формата : 3 точки перехода
Параметр матрицы формата : Default (MPEG)
Идентификатор кодека : DIVX
Идентификатор кодека/Информация : Project Mayo
Идентификатор кодека/Подсказка : DivX 4
Продолжительность : 1 ч. 23 м.
Битрейт : 1020 Кбит/сек
Ширина : 640 пикселей
Высота : 360 пикселей
Соотношение сторон : 16:9
Частота кадров : 25,000 кадров/сек
Цветовое пространство : YUV
Субдискретизация насыщенности : 4:2:0
Битовая глубина : 8 бит
Тип развёртки : Прогрессивная
Метод сжатия : С потерями
Бит/(Пиксели*Кадры) : 0.177
Размер потока : 611 Мбайт (88%)
Библиотека кодирования : XviD 1.2.1 (UTC 2008-12-04)

Аудио
Идентификатор : 1
Формат : MPEG Audio
Версия формата : Version 1
Профиль формата : Layer 3
Настройки формата : Joint stereo / MS Stereo
Идентификатор кодека : 55
Идентификатор кодека/Подсказка : MP3
Продолжительность : 1 ч. 23 м.
Вид битрейта : Постоянный
Битрейт : 128 Кбит/сек
Каналы : 2 канала
Частота : 48,0 КГц
Частота кадров : 41,667 кадра/сек (1152 SPF)
Метод сжатия : С потерями
Размер потока : 76,7 Мбайт (11%)
Выравнивание : Соединение по промежуткам
Продолжительность промежутка : 40 мс. (1,00 видеокадр)
Время предзагрузки промежутка : 504 мс.
Библиотека кодирования : LAME3.99r
Настройки программы : -m j -V 4 -q 2 -lowpass 17 -b 128




Скачать Гретель и Гензель через торрент https://pic1.kartinco.top/images/12/fsn8p.jpg Скачать, смотреть онлайн Гретель и Гензель бесплантно в хорошем качестве Описание: Новая старинной сказки братьев Гримм о зловещих приключениях брата и сестры в Очарованном лесу. В поисках еды голодные ... 10 10 11
Info! Золотая раздача, скачанное не засчитывается.
Торрент: Зарегистрирован [2020-04-07 18:35] · скачан: 205 раз
Статус: √ проверено
Размер: 693 MB
Как cкачать? Как скачать Гретель и Гензель через торрент | UTorrent

% Раздел Тема Автор DL S | L
Ultra HD (UHD: 2K, 4K, 8K) [ 43.91 GB ] Гретель и Гензель / Gretel & Hansel | iTunes | 2160p bober100 Скачать
1 | 0
Фильмы 2019-2020 [DVDrip, WEB-DLRip, HDrip] (DUB, MVO) [ 1.49 GB ] Гретель и Гензель / Gretel & Hansel | Лицензия | BDRip Twi7ter Скачать
4 | 0
Фильмы [HD 720p, 1080p] (Хороший звук DUB, MVO) [ 5.37 GB ] Гретель и Гензель / Gretel & Hansel | iTunes | 720p bober100 Скачать
1 | 0
Фильмы 2019-2020 [DVDrip, WEB-DLRip, HDrip] (DUB, MVO) [ 1.93 GB ] Гретель и Гензель / Gretel & Hansel | iTunes | BDRip AVC Леонид Ильич Скачать
1 | 0
Фильмы [HD 720p, 1080p] (Хороший звук DUB, MVO) [ 9.55 GB ] Гретель и Гензель / Gretel & Hansel | iTunes | 1080p bober100 Скачать
1 | 0
Фильмы (Blu-ray, BD-Remux, HDDVD) [ 23.47 GB ] Гретель и Гензель / Gretel & Hansel | iTunes | BD Remux 1080p bober100 Скачать
1 | 0
Фильмы (WEB-DL 720p, 1080p) [ 3.73 GB ] Гретель и Гензель / Gretel & Hansel | iTunes | 720p bober100 Скачать
1 | 0

28-11-2019 20:33  


Отключить вcю реклaмy на сайте, в т.ч. и в плеере онлайн просмотра!

    Дорогой пользователь! Огромная просьба, поблагодарите релизера, оцените раздачу и оставьте свои комментарий, если Вы скачали Гретель и Гензель через торрент бесплатно!!
    Комментировать посты могут только пользователи прошедшие не сложную регистрацию
    Показать сообщения:    


    Гретель и Гензель через торрент
    Скачать бесплатно Гретель и Гензель
    Гретель и Гензель скачать торрент
    Гретель и Гензель смотреть онлайн
    Cкачать фильм Гретель и Гензель бесплатно
    Гретель и Гензель скачать торрент в хорошем качестве
    Гретель и Гензель смотреть онлайн бесплатно в хорошем качестве
    Вы не можете начинать темы
    Вы не можете отвечать на сообщения
    Вы не можете редактировать свои сообщения
    Вы не можете удалять свои сообщения
    Вы не можете голосовать в опросах
    Вы не можете прикреплять файлы к сообщениям
    Вы можете скачивать файлы
    Гретель и Гензель / Gretel & Hansel [2020 г., ужасы, фэнтези, триллер, WEB-DLRip, Дубляж "iTunes"] смотреть онлайн, скачать торрент picoco.icu