2 сезон

iTunes

WEBRip

1

2 сезон

iTunes

1 сезон

1 сезон

RePack

30

Новинка

ВАЖНО

ИГРА 18+

pack

RePack

MK11
pack

Легкие деньги

RePack

jed

RePack

fifa19

RePack

RDR2

RePack

NEED FOR SPEED™ PAYBACK

4 сезон

9 сезон

Бесстыжие 9 сезон

Все сериалы

все сериалы на PB.wtf

RePack

FAR CRY 5

Anonymous, доброй ночи, мы не успеваем собрать деньги на оплату серверов за февраль, помогите нам пожалуйста в это трудное время. В качестве благодарности мы отключим Вам всю рекламу на сайте (укажите свой ник в строку Ваше имя)!

×
  
Magnet ссылка

Брама (Владимир Тихий) [2017, триллер, мистика, ужасы, драма, детектив, WEBRip 1080p] [UKR] piratbit.org

Брама через торрент piratbit.org

Раздают: 1 [ 0 KB/s ]
Размер: 3.44 GB | Добавлен: 10 мес. назад | Торрент скачан:36 раз
Скачать  

08-04-2020 17:03 Брама Скачать торрент  

Брама
Год выпуска: 2017
Страна: Украина
Жанр: триллер, мистика, ужасы, драма, детектив
Продолжительность: 01:46:34
Перевод: Оригинал (Украинский)
Субтитры: отсутствуют

Режиссер: Владимир Тихий

rating

В ролях: Ирма Витовская, Виталина Библив, Ярослав Федорчук, Дмитрий Ярошенко, Дмитро Тубольцев и др.

Описание: Лента рассказывает о семье, которая проживает в Чернобыльской зоне отчуждения. Главная в семье — баба Прися, которая дружит с русалками, пробует галлюциногенные грибы, а как-то во время войны зарезала двенадцати эссэсовцев. С ней живут внук Вовчик и болезненная дочка Слава, которую в своё время бросил мужчина. Неожиданно их размеренная жизнь заканчивается — баба Прися получает мистическое предупреждение о катастрофе, которая случится в ближайшее время.

Качество: WEBRip 1080p
Формат: MKV

Видео: 1920x820 (2.35:1), 29.970 fps, AVC MPEG-4, High@L4 ~ 4364 kbps, 0.092 bit/pixel
Аудио: 44.1 kHz, AC3 Dolby Digital, 2/0 (L,R) ch, ~256 kbps
скриншот  скриншот  скриншот  скриншот  скриншот  

General
Unique ID : 137399470386638020565123486085640450438 (0x675E2CE960A0D2F8DFB1682B2F817186)
Complete name : E:Brama.2017.WEBRip 1080p.mkv
Format : Matroska
Format version : Version 4 / Version 2
File size : 3.44 GiB
Duration : 1 h 46 min
Overall bit rate : 4 622 kb/s
Encoded date : UTC 2020-04-07 10:49:06
Writing application : mkvmerge v44.0.0 ('Domino') 64-bit
Writing library : libebml v1.3.10 + libmatroska v1.5.2

Video
ID : 1
Format : AVC
Format/Info : Advanced Video Codec
Format profile : High@L4
Format settings, CABAC : Yes
Format settings, ReFrames : 4 frames
Codec ID : V_MPEG4/ISO/AVC
Duration : 1 h 46 min
Bit rate : 4 364 kb/s
Width : 1 920 pixels
Height : 820 pixels
Display aspect ratio : 2.35:1
Frame rate mode : Variable
Frame rate : 29.970 (29970/1000) FPS
Color space : YUV
Chroma subsampling : 4:2:0
Bit depth : 8 bits
Scan type : Progressive
Bits/(Pixel*Frame) : 0.092
Stream size : 3.25 GiB (94%)
Default : Yes
Forced : No

Audio
ID : 2
Format : AC-3
Format/Info : Audio Coding 3
Format settings, Endianness : Big
Codec ID : A_AC3
Duration : 1 h 46 min
Bit rate mode : Constant
Bit rate : 256 kb/s
Channel(s) : 2 channels
Channel positions : Front: L R
Sampling rate : 44.1 kHz
Frame rate : 28.711 FPS (1536 spf)
Bit depth : 16 bits
Compression mode : Lossy
Stream size : 195 MiB (6%)
Service kind : Complete Main
Default : Yes
Forced : No

piratbit.org



Скачать Брама через торрент https://img15.lostpic.net/2020/04/08/07cc4c9a50ed18ca06a7553aad2f50a9.jpg Скачать фильм Брама через торрент бесплантно в хорошем качестве Описание: Лента рассказывает о семье, которая проживает в Чернобыльской зоне отчуждения. Главная в семье — баба Прися, которая дружит с ... 7.3 10 6
Торрент: Зарегистрирован [2020-04-08 17:03] · скачан: 36 раз
Статус: T временная
Размер: 3.44 GB
Как cкачать? Как скачать Брама через торрент | UTorrent

% Раздел Тема Автор DL S | L
T Фильмы с украинским озвучиванием [ 1.46 GB ] Брама [2017 WEBRip] [UKR] bober100 Скачать
1 | 0
Фильмы с авторской озвучкой [ 2.43 GB ] Хэнговер-сквер / Hangover Square [1945 BDRip 720p by msltel] AVO msltel Скачать
1 | 0
Фильмы с авторской озвучкой [ 7.35 GB ] Хэнговер-сквер / Hangover Square [1945 BDRip 1080p by msltel] AVO msltel Скачать
1 | 0
Фильмы 2012 [ 179 MB ] Севилья / Sevilla [2012 короткий метр DVBRip] DVO Ворон Скачать
1 | 0
Иностранные мультфильмы [ 1.37 GB ] Маленький Кришна - Чудесные подвиги / Little Krishna - The Wondrous Feats [2009 DVDRip лицензия] Lil Badun Скачать
1 | 0

28-11-2019 20:33  

Отключить всю рекламу на сайте

08-04-2020 19:17 Брама Скачать торрент  

как фильм?piratbit.org



10-04-2020 11:12 Брама Скачать торрент  

meroshok писал(а):

как фильм?

Страна: Украинаpiratbit.org



11-04-2020 05:05 Брама Скачать торрент  

poloz писал(а):

meroshok писал(а):

как фильм?

Страна: Украина

ну если украина, то это еще не значит что все там говно. хотя явно не про этот случай - достаточно трейлер глянуть))


piratbit.org



    Дорогой пользователь! Огромная просьба, поблагодарите релизера, оцените раздачу и оставьте свои комментарий, если Вы скачали Брама через торрент бесплатно! Внесите свою лепту в развитие PiratBit!
    Комментировать посты могут только пользователи прошедшие не сложную регистрацию
    Показать сообщения:    

    Брама через торрент
    Скачать бесплатно Брама
    Брама скачать торрент
    Брама смотреть онлайн
    Cкачать фильм Брама бесплатно
    Брама скачать торрент в хорошем качестве
    Брама смотреть онлайн бесплатно в хорошем качестве


    Вы не можете начинать темы
    Вы не можете отвечать на сообщения
    Вы не можете редактировать свои сообщения
    Вы не можете удалять свои сообщения
    Вы не можете голосовать в опросах
    Вы не можете прикреплять файлы к сообщениям
    Вы можете скачивать файлы