1 сезон

3 сезон

iTunes

1

iTunes

DUB Netflix

iTunes

13

1 сезон

RePack

30

Deluxe

pack

Легкие деньги

ВАЖНО

ИГРА 18+

pack

RePack

MK11

RePack

jed

RePack

fifa19

RePack

RDR2

RePack

NEED FOR SPEED™ PAYBACK

4 сезон

9 сезон

Бесстыжие 9 сезон

Все сериалы

все сериалы на PB.wtf

RePack

FAR CRY 5

Anonymous, добрый вечер, мы не успеваем до 1 числа собрать деньги на оплату серверов, помогите нам пожалуйста в это трудное время. В качестве благодарности мы отключим Вам всю рекламу на сайте (укажите свой ник в строку Ваше имя)!

×
  
Magnet ссылка

Полицейский с Рублёвки. Полицейская академия / Сезон: 5 / Серии: 1-8 из 8 (Илья Куликов) [2019, Комедия, криминал (18+), HDTV 1080i] piratbit.org

Полицейский с Рублёвки. Полицейская академия через торрент piratbit.org

Раздают: 3 [ 0 KB/s ]
Размер: 5.47 GB | Добавлен: 1 год 2 мес. назад | Торрент скачан:320 раз
Скачать  

09-04-2020 18:25 Полицейский с Рублёвки. Полицейская академия Скачать торрент  

Полицейский с Рублёвки. Полицейская академия
Год выпуска: 2019
Страна: Россия
Жанр: Комедия, криминал
Продолжительность: ~ 00:25:00
Перевод: Не требуется
Субтитры: отсутствуют
• Версия 18+. Внимание! Присутствует ненормативная лексика.

Режиссер: Илья Куликов

rating

В ролях: Сергей Бурунов, Роман Попов, Георгий Клинаев, Ирина Вилкова, Татьяна Бабенкова, Софья Каштанова, Ростислав Гулбис, Сергей Штатнов, Александра Бортич, Александр Дерепко, Светлана Суханова, Мария Безродная, Анна Котова, Велимир Русаков, Константин Быков

Описание: Вернувшись из отпуска, глава отдела полиции Барвихи Владимир Яковлев получает новое назначение: он становится начальником созданной на Рублёвке Академии российской полиции. Ему предстоит воспитать и обучить новое поколение полицейских, стражей закона будущего. В этом непростом деле ему помогут старые друзья и коллеги: следователь Игорь Мухич, оперативники Алиса, Олег, Саша и Дима. И все было бы прекрасно, если бы не… Гриша Измайлов.

Качество: HDTV 1080i
Формат: MKV

Видео: 1920х1080 (16:9), 25 fps, AVC MPEG-4 (x264), High@L4.1 ~ 4000 kbps avg, 0.126 bit/pixel
Аудио: Русский (MP2, 2 ch, 192 Кбит/с)
скриншот  скриншот  скриншот  скриншот  

Общее
Идентификатор : 1 (0x1)
Полное имя : C:\Polizeyskiy.S.Rublevki.S05.2019.HDTV.(1080i).ExKinoRay\Polizeyskiy.S.Rublevki.S05.E01.2019.HDTV.(1080i).ExKinoRay.ts
Формат : MPEG-TS
Размер файла : 765 Мбайт
Продолжительность : 25 м. 11 с.
Режим общего битрейта : Переменный
Общий поток : 4 247 Кбит/сек

Видео
Идентификатор : 100 (0x64)
Идентификатор меню : 1 (0x1)
Формат : AVC
Формат/Информация : Advanced Video Codec
Профиль формата : High@L4
Настройки формата : CABAC / 4 Ref Frames
Параметр CABAC формата : Да
Параметр RefFrames формата : 4 кадра
Идентификатор кодека : 27
Продолжительность : 25 м. 10 с.
Битрейт : 4000 Кбит/сек
Ширина : 1 920 пикселей
Высота : 1 080 пикселей
Соотношение сторон : 16:9
Частота кадров : 25,000 кадров/сек
Стандарт вещания : Component
Цветовое пространство : YUV
Субдискретизация насыщенности : 4:2:0
Битовая глубина : 8 бит
Тип развёртки : Чересстрочная
Метод сохранения типа развёртки : Раздельные поля
Порядок развёртки : Верхнее поле первое
Бит/(Пиксели*Кадры) : 0.077
Размер потока : 692 Мбайт (90%)
Цветовой диапазон : Limited
Основные цвета : BT.709
Характеристики трансфера : BT.709
Коэффициенты матрицы : BT.709

Аудио
Идентификатор : 200 (0xC8)
Идентификатор меню : 1 (0x1)
Формат : MPEG Audio
Версия формата : Version 1
Профиль формата : Layer 2
Идентификатор кодека : 3
Продолжительность : 25 м. 10 с.
Вид битрейта : Постоянный
Битрейт : 192 Кбит/сек
Каналы : 2 канала
Частота : 48,0 КГц
Частота кадров : 41,667 кадра/сек (1152 SPF)
Метод сжатия : С потерями
Задержка видео : -80 мс.
Размер потока : 34,6 Мбайт (5%)
Язык : Russian

Внимание! Раздача ведётся путём добавления новых серий; при каждом добавлении создаётся новый торрент. Чтобы начать докачку новой серии, пользователям необходимо сделать следующее:
(1) остановить скачивание,
(2) удалить старый торрент у себя из клиента (старые серии удалять не надо),
(3) скачать новый торрент и запустить его у себя в клиенте вместо старого, при этом указать клиенту путь в старую папку куда и должно происходить скачивание новых серий.

Ваш клиент при этом должен произвести хеширование (проверку) старой папки (если не производит сам - помогите ему сделать это), и будет докачивать только те серии которых у вас ещё нет. Старые серии при этом не удаляются, а продолжают раздаваться!

Eсли вы уже удалили старые серии, то предотвратить повторную закачку старых серий можно, отжав галочку в соответсвующих местах при запуске нового торрента. По возможности, желательно не удалять старые серии как можно дольше чтобы релизёр не столько продолжал раздавать старые серии, а смог сконцентрироваться на новых.
piratbit.org



Скачать Полицейский с Рублёвки. Полицейская академия через торрент https://img15.lostpic.net/2019/12/05/dad84b4b34e488bb30db665ba0aa9f5f.jpg Скачать фильм Полицейский с Рублёвки. Полицейская академия через торрент бесплантно в хорошем качестве Описание: Вернувшись из отпуска, глава отдела полиции Барвихи Владимир Яковлев получает новое назначение: он становится начальником ... 9.1 10 19
Info! Золотая раздача, скачанное не засчитывается.
Торрент: Зарегистрирован [2020-04-15 19:29] · скачан: 320 раз
Статус: √ проверено
Размер: 5.47 GB
Как cкачать? Как скачать Полицейский с Рублёвки. Полицейская академия через торрент | UTorrent



Последний раз редактировалось: bober100 (2020-04-15 19:29), всего редактировалось 3 раз(а)

28-11-2019 20:33  

Отключить всю рекламу на сайте

10-04-2020 13:49 Полицейский с Рублёвки. Полицейская академия Скачать торрент  

с такой же Версией 18+ есть с 1-4 сезона?piratbit.org



15-04-2020 19:52 Полицейский с Рублёвки. Полицейская академия Скачать торрент  

Это сезон такой! Остальные не чуть не отстают!piratbit.org



    Дорогой пользователь! Огромная просьба, поблагодарите релизера, оцените раздачу и оставьте свои комментарий, если Вы скачали Полицейский с Рублёвки. Полицейская академия через торрент бесплатно! Внесите свою лепту в развитие PiratBit!
    Комментировать посты могут только пользователи прошедшие не сложную регистрацию
    Показать сообщения:    

    Полицейский с Рублёвки. Полицейская академия через торрент
    Скачать бесплатно Полицейский с Рублёвки. Полицейская академия
    Полицейский с Рублёвки. Полицейская академия скачать торрент
    Полицейский с Рублёвки. Полицейская академия смотреть онлайн
    Cкачать фильм Полицейский с Рублёвки. Полицейская академия бесплатно
    Полицейский с Рублёвки. Полицейская академия скачать торрент в хорошем качестве
    Полицейский с Рублёвки. Полицейская академия смотреть онлайн бесплатно в хорошем качестве


    Вы не можете начинать темы
    Вы не можете отвечать на сообщения
    Вы не можете редактировать свои сообщения
    Вы не можете удалять свои сообщения
    Вы не можете голосовать в опросах
    Вы не можете прикреплять файлы к сообщениям
    Вы можете скачивать файлы