Доктор Стрэндж

Лицензия

Добыча

Дубляж

Дом дракона

1 сезон

Тор

Дубляж

В эфире

Дубляж

Там, где раки поют

MVO

Властелин колец

1 сезон

Deluxe

pack

Рекомендуем

30

Пиратка

ВАЖНО

ВАЖНО

Ghostwire

Пиратка

jed

RePack

nioh2

RePack

RDR2

RePack

NEED FOR SPEED™ PAYBACK

RePack

скачать торрент

Кинопоиск HD

Острые козырьки 6 сезон

6 сезон

FAR CRY 6

RePack

скачать торрент

Лицензия

скачать торрент

MVO

1

1 сезон

скачать торрент

1 сезон

скачать торрент

Лицензия

  

Туннель: Опасно для жизни / Tunnelen (Пол Ойе) [2019 г., триллер, WEB-DLRip, Дубляж "iTunes"]

Туннель: Опасно для жизни через торрент piratbit.org

Размер: 706 MB | Добавлен: 2 года 7 мес. назад | Торрент скачан:119 раз
Смотреть онлайн | Скачать   

09-04-2020 18:26 Туннель: Опасно для жизни Скачать торрент  

Туннель: Опасно для жизни / Tunnelen
Год выпуска: 2019
Страна: Норвегия / Nordisk Film Production AS, Handmade films in Norwegian woods
Жанр: триллер
Продолжительность: 01:43:43
Перевод: Дубляж (iTunes)
«Сотни машин, тысячи людей, один шанс спастись»

Режиссер: Пол Ойе

rating

В ролях: Торбьорн Харр, Ильва Фюглегуд, Лиза Карлехед, Миккель Братт Сильсет, Питер Форде, Даниэль Александер Скадаль, Пер Эгиль Аске, Тор Кристиан Блейкли, Ян Гуннар Рёйсе, Уильям Оскневад

Описание: Каждый день въезжая в туннель, думаете ли вы о том, что в нем нет аварийного выхода? Что вы будете делать, если начнется пожар? Сотни машин, тысячи людей оказались в плену между снежной бурей и бушующим пламенем. Им осталось надеяться только на себя.

Качество: WEB-DLRip
Формат: AVI
Видео кодек: DivX
Аудио кодек: MP3
Видео: 640x272 (2.35:1), 24.000 fps, DivX Codec 4.x ~814 kbps avg, 0.20 bit/pixel
Аудио: 48 kHz, MPEG Layer 3, 2 ch, ~128.00 kbps avg
скриншот   скриншот   скриншот   скриншот   скриншот   скриншот   скриншот   скриншот  

Общее
Полное имя : F:\ФИЛЬМЫ\Туннель Опасно для жизни.2019.D.WEB-DLRip.avi
Формат : AVI
Формат/Информация : Audio Video Interleave
Размер файла : 706 Мбайт
Продолжительность : 1 ч. 43 м.
Общий поток : 952 Кбит/сек
Программа кодирования : VirtualDubMod 1.5.10.3 | www.virtualdub-fr.org || (build 2550/release)
Библиотека кодирования : VirtualDubMod build 2550/release

Видео
Идентификатор : 0
Формат : MPEG-4 Visual
Профиль формата : Advanced Simple@L5
Настройки формата : BVOP3 / GMC3 / QPel
Параметр BVOP формата : 3
Параметр QPel формата : Да
Параметр GMC формата : 3 точки перехода
Параметр матрицы формата : Default (MPEG)
Идентификатор кодека : DIVX
Идентификатор кодека/Информация : Project Mayo
Идентификатор кодека/Подсказка : DivX 4
Продолжительность : 1 ч. 43 м.
Битрейт : 814 Кбит/сек
Ширина : 640 пикселей
Высота : 272 пикселя
Соотношение сторон : 2,35:1
Частота кадров : 24,000 кадра/сек
Цветовое пространство : YUV
Субдискретизация насыщенности : 4:2:0
Битовая глубина : 8 бит
Тип развёртки : Прогрессивная
Метод сжатия : С потерями
Бит/(Пиксели*Кадры) : 0.195
Размер потока : 604 Мбайт (86%)
Библиотека кодирования : XviD 1.2.1 (UTC 2008-12-04)

Аудио
Идентификатор : 1
Формат : MPEG Audio
Версия формата : Version 1
Профиль формата : Layer 3
Настройки формата : Joint stereo / MS Stereo
Идентификатор кодека : 55
Идентификатор кодека/Подсказка : MP3
Продолжительность : 1 ч. 43 м.
Вид битрейта : Постоянный
Битрейт : 128 Кбит/сек
Каналы : 2 канала
Частота : 48,0 КГц
Частота кадров : 41,667 кадра/сек (1152 SPF)
Метод сжатия : С потерями
Размер потока : 95,0 Мбайт (13%)
Выравнивание : Соединение по промежуткам
Продолжительность промежутка : 42 мс. (1,00 видеокадр)
Время предзагрузки промежутка : 504 мс.
Библиотека кодирования : LAME3.99r
Настройки программы : -m j -V 4 -q 2 -lowpass 17 -b 128




Скачать Туннель: Опасно для жизни через торрент https://pic1.kartinco.top/images/12/tgfao.jpg Скачать, смотреть онлайн Туннель: Опасно для жизни бесплантно в хорошем качестве Описание: Каждый день въезжая в туннель, думаете ли вы о том, что в нем нет аварийного выхода? Что вы будете делать, если начнется пожар? ... 8 10 9
Торрент: Зарегистрирован [2020-04-09 18:26] · скачан: 119 раз
Статус: √ проверено
Размер: 706 MB
Как cкачать? Как скачать Туннель: Опасно для жизни через торрент | UTorrent

% Раздел Тема Автор DL S | L
Фильмы (Blu-ray, BD-Remux, HDDVD) [ 20.51 GB ] Туннель: Опасно для жизни / Tunnelen | iTunes | BD Remux, Дубляж iTunes Бумер Скачать
1 | 0
T Фильмы [HD 720p, 1080p] (Хороший звук DUB, MVO) [ 7.92 GB ] Туннель: Опасно для жизни / Tunnelen | iTunes | 1080p bober100 Скачать
1 | 0
T Фильмы [HD 720p, 1080p] (Хороший звук DUB, MVO) [ 4.62 GB ] Туннель: Опасно для жизни / Tunnelen | iTunes | 720p bober100 Скачать
1 | 0
Фильмы 2019-2020 [DVDrip, WEB-DLRip, HDrip] (DUB, MVO) [ 1.46 GB ] Туннель: Опасно для жизни / Tunnelen | iTunes | HDRip bober100 Скачать
1 | 0
Фильмы (WEB-DL 720p, 1080p) [ 3.65 GB ] Туннель: Опасно для жизни / Tunnelen | iTunes | 1080p bober100 Скачать
1 | 0

28-11-2019 20:33  


Отключить вcю реклaмy на сайте, в т.ч. и в плеере онлайн просмотра!

    Дорогой пользователь! Огромная просьба, поблагодарите релизера, оцените раздачу и оставьте свои комментарий, если Вы скачали Туннель: Опасно для жизни через торрент бесплатно!!
    Комментировать посты могут только пользователи прошедшие не сложную регистрацию
    Показать сообщения:    


    Туннель: Опасно для жизни через торрент
    Скачать бесплатно Туннель: Опасно для жизни
    Туннель: Опасно для жизни скачать торрент
    Туннель: Опасно для жизни смотреть онлайн
    Cкачать фильм Туннель: Опасно для жизни бесплатно
    Туннель: Опасно для жизни скачать торрент в хорошем качестве
    Туннель: Опасно для жизни смотреть онлайн бесплатно в хорошем качестве
    Вы не можете начинать темы
    Вы не можете отвечать на сообщения
    Вы не можете редактировать свои сообщения
    Вы не можете удалять свои сообщения
    Вы не можете голосовать в опросах
    Вы не можете прикреплять файлы к сообщениям
    Вы можете скачивать файлы
    Туннель: Опасно для жизни / Tunnelen [2019 г., триллер, WEB-DLRip, Дубляж "iTunes"] смотреть онлайн, скачать торрент picoco.icu