Ссылка на приватное зеркало нашего сайта всего за 1$. Внимание количество ограничено!!!

2 сезон

iTunes

iTunes

1

iTunes

iTunes

iTunes

WEBRip

iTunes

30
pack

Вам бонус

ВАЖНО

!!Акция!!

Alien_RageХит недели

RePack

Horizon Zero Dawn

ИГРА 18+

pack

RePack

jed

!!Акция!!

Alien_Rage

RePack

fifa19

RePack

Assassins Creed: Odyssey

RePack

NEED FOR SPEED™ PAYBACK

4 сезон

9 сезон

Бесстыжие 9 сезон

Все сериалы

все сериалы на PB.wtf

RePack

FAR CRY 5
  

На другом конце провода / The Other End of the Line (Джеймс Додсон) [2008, мелодрама, драма, комедия, BDRip-AVC by msltel] MVO, DVO piratbit.org

На другом конце провода через торрент piratbit.org

Раздают: 1 [ 0 KB/s ]
Размер: 2.6 GB | Добавлен: 5 мес. 19 д. назад | Торрент скачан:9 раз
Скачать  

11-04-2020 08:51 На другом конце провода Скачать торрент  

Название: На другом конце провода
Оригинальное название: The Other End of the Line
Год выпуска: 2008
Страна: Великобритания, США, Индия
Жанр: мелодрама, драма, комедия
Продолжительность: 01:41:06
Перевод: профессиональный многоголосый, профессиональный двухголосый
Режиссер: Джеймс Додсон
В ролях: Джесси Меткалф, Шрия Саран, Ларри Миллер, Майкл Чен, Ноува Моника Уолгрен, Сара Фостер, Гарри Кей, Остин Басис, Тара Шарма, Сушмита Мукхерджи

О фильме: История любви двух совершенно непохожих людей – сотрудницы индийской телефонной станции и парня из Сан-Франциско. Очаровательная девушка Прия совершает долгий перелёт, чтобы встретиться с человеком, которого она заочно полюбила по телефону...



Качество: BDRip-AVC
Формат: MKV
Видео: MPEG-4 AVC, 2598 Кбит/с, 1024x436, 25 кадр/с
Аудио 1: русский, AC3, 192 kbps, 2 ch, 48 kHz [закадровый многоголосый]
Аудио 2: русский, AC3, 448 kbps, 6 ch, 48 kHz [закадровый двухголосый]
Аудио 3: английский, AC3, 448 kbps, 6 ch, 48 kHz [оригинал]
Субтитры: английские
Главы/чаптеры
Общее
Уникальный идентификатор : 170874158653215439335087881828439247997 (0x808D2A7795B9FB45B928C9BCFD914C7D)
Полное имя : D:\Video\На другом конце провода.2008.BDRip-AVC by msltel.mkv
Формат : Matroska
Версия формата : Version 4
Размер файла : 2,60 Гбайт
Продолжительность : 1 ч. 41 м.
Общий поток : 3 688 Кбит/сек
Название фильма : Rip by msltel
Дата кодирования : UTC 2020-04-11 07:57:27
Программа кодирования : mkvmerge v8.2.0 ('World of Adventure') 64bit
Библиотека кодирования : libebml v1.3.1 + libmatroska v1.4.2

Видео
Идентификатор : 1
Формат : AVC
Формат/Информация : Advanced Video Codec
Профиль формата : High@L4.1
Настройки формата : CABAC / 14 Ref Frames
Параметр CABAC формата : Да
Параметр RefFrames формата : 14 кадров
Идентификатор кодека : V_MPEG4/ISO/AVC
Продолжительность : 1 ч. 41 м.
Битрейт : 2 598 Кбит/сек
Ширина : 1 024 пикселя
Высота : 436 пикселей
Соотношение сторон : 2,35:1
Режим частоты кадров : Постоянный
Частота кадров : 25,000 кадров/сек
Цветовое пространство : YUV
Субдискретизация насыщенности : 4:2:0
Битовая глубина : 8 бит
Тип развёртки : Прогрессивная
Бит/(Пиксели*Кадры) : 0.233
Размер потока : 1,83 Гбайт (70%)
Библиотека кодирования : x264 core 159 r2991 1771b55
Настройки программы : cabac=1 / ref=14 / deblock=1:-2:-2 / analyse=0x3:0x113 / me=umh / subme=11 / psy=1 / psy_rd=1.00:0.15 / mixed_ref=1 / me_range=32 / chroma_me=1 / trellis=2 / 8x8dct=1 / cqm=0 / deadzone=21,11 / fast_pskip=0 / chroma_qp_offset=-3 / threads=6 / lookahead_threads=1 / sliced_threads=0 / nr=0 / decimate=1 / interlaced=0 / bluray_compat=0 / constrained_intra=0 / bframes=8 / b_pyramid=2 / b_adapt=2 / b_bias=0 / direct=1 / weightb=1 / open_gop=0 / weightp=2 / keyint=240 / keyint_min=24 / scenecut=40 / intra_refresh=0 / rc_lookahead=40 / rc=crf / mbtree=1 / crf=18.5 / qcomp=0.60 / qpmin=0 / qpmax=69 / qpstep=4 / vbv_maxrate=50000 / vbv_bufsize=62500 / crf_max=0.0 / nal_hrd=none / filler=0 / ip_ratio=1.40 / aq=1:1.00
Язык : English
Default : Да
Forced : Нет

Аудио #1
Идентификатор : 2
Формат : AC-3
Формат/Информация : Audio Coding 3
Коммерческое название : Dolby Digital
Идентификатор кодека : A_AC3
Продолжительность : 1 ч. 41 м.
Вид битрейта : Постоянный
Битрейт : 192 Кбит/сек
Каналы : 2 канала
Channel layout : L R
Частота : 48,0 КГц
Частота кадров : 31,250 кадров/сек (1536 SPF)
Метод сжатия : С потерями
Размер потока : 139 Мбайт (5%)
Заголовок : MVO
Язык : Russian
Service kind : Complete Main
Default : Да
Forced : Нет

Аудио #2
Идентификатор : 3
Формат : AC-3
Формат/Информация : Audio Coding 3
Коммерческое название : Dolby Digital
Идентификатор кодека : A_AC3
Продолжительность : 1 ч. 41 м.
Вид битрейта : Постоянный
Битрейт : 448 Кбит/сек
Каналы : 6 каналов
Channel layout : L R C LFE Ls Rs
Частота : 48,0 КГц
Частота кадров : 31,250 кадров/сек (1536 SPF)
Метод сжатия : С потерями
Размер потока : 324 Мбайт (12%)
Заголовок : DVO
Язык : Russian
Service kind : Complete Main
Default : Нет
Forced : Нет

Аудио #3
Идентификатор : 4
Формат : AC-3
Формат/Информация : Audio Coding 3
Коммерческое название : Dolby Digital
Идентификатор кодека : A_AC3
Продолжительность : 1 ч. 41 м.
Вид битрейта : Постоянный
Битрейт : 448 Кбит/сек
Каналы : 6 каналов
Channel layout : L R C LFE Ls Rs
Частота : 48,0 КГц
Частота кадров : 31,250 кадров/сек (1536 SPF)
Метод сжатия : С потерями
Размер потока : 324 Мбайт (12%)
Заголовок : original
Язык : English
Service kind : Complete Main
Default : Нет
Forced : Нет

Текст
Идентификатор : 5
Формат : UTF-8
Идентификатор кодека : S_TEXT/UTF8
Идентификатор кодека/Информация : UTF-8 Plain Text
Продолжительность : 1 ч. 39 м.
Битрейт : 81 бит/сек
Count of elements : 1504
Размер потока : 59,5 Кбайт (0%)
Заголовок : английские
Язык : English
Default : Нет
Forced : Нет

Меню
00:00:00.000 : :Глава 01
00:07:07.160 : :Глава 02
00:13:44.760 : :Глава 03
00:20:36.640 : :Глава 04
00:26:59.640 : :Глава 05
00:34:18.920 : :Глава 06
00:40:40.279 : :Глава 07
00:46:43.840 : :Глава 08
00:53:03.120 : :Глава 09
00:58:53.680 : :Глава 10
01:04:22.080 : :Глава 11
01:12:03.880 : :Глава 12
01:18:24.720 : :Глава 13
01:23:43.080 : :Глава 14
01:32:02.160 : :Глава 15
01:36:53.200 : :Глава 16
piratbit.org



Скачать На другом конце провода через торрент https://b.radikal.ru/b23/2004/e8/fbdc466bb971.jpg Скачать фильм На другом конце провода через торрент бесплантно в хорошем качестве О фильме: История любви двух совершенно непохожих людей – сотрудницы индийской телефонной станции и парня из Сан-Франциско. Очаровательная ... 10 10 1
Торрент: Зарегистрирован [2020-04-11 08:51] · скачан: 9 раз
Статус: √ проверено
Размер: 2.6 GB
Как cкачать? Как скачать На другом конце провода через торрент | qTorrent

% Раздел Тема Автор DL S | L
Фильмы [HD 720p, 1080p] (Хороший звук DUB, MVO) [ 10.2 GB ] На другом конце провода / The Other End of the Line [2008 BDRip 1080p by msltel] MVO DVO msltel Скачать
1 | 0
Фильмы [HD 720p, 1080p] (Хороший звук DUB, MVO) [ 3.92 GB ] На другом конце провода / The Other End of the Line [2008 BDRip 720p by msltel] MVO DVO msltel Скачать
1 | 0

28-11-2019 20:33  

Отключить всю рекламу на сайте

    Дорогой пользователь! Огромная просьба, поблагодарите релизера, оцените раздачу и оставьте свои комментарий, если Вы скачали На другом конце провода через торрент бесплатно! Внесите свою лепту в развитие PiratBit!
    Комментировать посты могут только пользователи прошедшие не сложную регистрацию
    Показать сообщения:    

    На другом конце провода через торрент
    Скачать бесплатно На другом конце провода
    На другом конце провода скачать торрент
    На другом конце провода смотреть онлайн
    Cкачать фильм На другом конце провода бесплатно
    На другом конце провода скачать торрент в хорошем качестве
    На другом конце провода смотреть онлайн бесплатно в хорошем качестве


    Вы не можете начинать темы
    Вы не можете отвечать на сообщения
    Вы не можете редактировать свои сообщения
    Вы не можете удалять свои сообщения
    Вы не можете голосовать в опросах
    Вы не можете прикреплять файлы к сообщениям
    Вы можете скачивать файлы