1 сезон

3 сезон

iTunes

1

iTunes

DUB Netflix

iTunes

13

1 сезон

RePack

30

Deluxe

pack

Легкие деньги

ВАЖНО

ИГРА 18+

pack

RePack

MK11

RePack

jed

RePack

fifa19

RePack

RDR2

RePack

NEED FOR SPEED™ PAYBACK

4 сезон

9 сезон

Бесстыжие 9 сезон

Все сериалы

все сериалы на PB.wtf

RePack

FAR CRY 5

Anonymous, добрый вечер, мы не успеваем до 1 числа собрать деньги на оплату серверов, помогите нам пожалуйста в это трудное время. В качестве благодарности мы отключим Вам всю рекламу на сайте (укажите свой ник в строку Ваше имя)!

×
  
Magnet ссылка

Родители / Сезон: 3 / Серии: 1-20 из 20 (Александр Жигалкин) [2020, Комедия, семейный, WEBRip 1080p] piratbit.org

Родители через торрент piratbit.org

Размер: 14.94 GB | Добавлен: 6 мес. назад | Торрент скачан:7 раз
Скачать  

11-04-2020 19:53 Родители Скачать торрент  

Родители
Год выпуска: 2020
Страна: Россия
Жанр: Комедия, семейный
Продолжительность: ~ 00:24:00 серия
Субтитры: отсутствуют

Режиссер: Александр Жигалкин



В ролях: Мария Порошина, Александр Самойленко, Александр Самойленко мл., Никита Митасов, Алексей Юрченко, Анастасия Крылова, Аксиния Кортнева, Валерия Механникова, Анастасия Акатова, Борис Богданов, Екатерина Черная

Описание: В семье Саши и Маши грядет пополнение. Правда, на этот раз родителями в скором времени должны стать их старший сын Тимофей и его избранница Полина. К подготовке к появлению первого внука главные герои подойдут со всей ответственностью, и новые статусы бабушки и дедушки добавят в их отношения нечто необычное. «РОДИТЕЛИ» — сериал, где есть место не только меткому семейному юмору, но и доле лирики, и даже философии. В общем, настоящее семейное шоу.

Качество: WEBRip 1080p
Формат: MKV

Видео: MPEG4 AVC Video, H264, 16:9, 1920x1072, 25 fps, ~4500 kbps, 0.087 bit/pixel
Аудио: AC3 Dolby Digital, 48.0 kHz, 2/0 (L,R) ch, 192 kbps
скриншот  скриншот  скриншот  скриншот  

General
Unique ID : 244449939322294973247139853539258850199 (0xB7E75886A3DE671CA72433F8ADB6DB97)
Complete name : D:\Roditeli.S03.2020.WEB-DL.(1080p).Getty\Roditeli.s03e01.2020.WEB-DL.(1080p).Getty.mkv
Format : Matroska
Format version : Version 4 / Version 2
File size : 774 MiB
Duration : 23 min 12 s
Overall bit rate mode : Variable
Overall bit rate : 4 665 kb/s
Movie name : Roditeli.s03e01.2020.WEB-DL.(1080p).Getty
Encoded date : UTC 2020-03-29 21:02:48
Writing application : mkvmerge v7.8.0 ('River Man') 32bit built on Mar 27 2015 16:18:02
Writing library : libebml v1.3.1 + libmatroska v1.4.2

Video
ID : 1
Format : AVC
Format/Info : Advanced Video Codec
Format profile : High@L4
Format settings : CABAC / 1 Ref Frames
Format settings, CABAC : Yes
Format settings, ReFrames : 1 frame
Format settings, GOP : M=1, N=50
Codec ID : V_MPEG4/ISO/AVC
Duration : 23 min 12 s
Bit rate mode : Variable
Bit rate : 4 500 kb/s
Width : 1 920 pixels
Height : 1 072 pixels
Display aspect ratio : 16:9
Frame rate mode : Constant
Frame rate : 25.000 FPS
Color space : YUV
Chroma subsampling : 4:2:0
Bit depth : 8 bits
Scan type : Progressive
Bits/(Pixel*Frame) : 0.087
Stream size : 742 MiB (96%)
Default : Yes
Forced : No

Audio
ID : 2
Format : AC-3
Format/Info : Audio Coding 3
Codec ID : A_AC3
Duration : 23 min 12 s
Bit rate mode : Constant
Bit rate : 192 kb/s
Channel(s) : 2 channels
Channel positions : Front: L R
Sampling rate : 48.0 kHz
Frame rate : 31.250 FPS (1536 SPF)
Bit depth : 16 bits
Compression mode : Lossy
Stream size : 31.9 MiB (4%)
Service kind : Complete Main
Default : Yes
Forced : No

Раздача ведётся путём добавления новых серий, при каждом добавлении создаётся новый торрент. Чтобы начать докачку новой серии, пользователям необходимо сделать следующее:

- Остановить скачивание.
- Удалить старый торрент у себя из клиента (старые серии удалять не надо).
- Скачать новый торрент и запустить его у себя в клиенте вместо старого, при этом указать клиенту путь в старую папку куда и должно происходить скачивание новых серий.

Ваш клиент при этом должен произвести хеширование (проверку) старой папки (если не производит сам - помогите ему сделать это), и будет докачивать только те серии которых у вас ещё нет. Старые серии при этом не удаляются, а продолжают раздаваться!
Если вы уже удалили старые серии, то предотвратить повторную закачку старых серий можно, отжав галочку в соответствующих местах при запуске нового торрента. По возможности, желательно не удалять старые серии как можно дольше, чтобы релизер не столько продолжал раздавать старые серии, а смог сконцентрироваться на новых.
piratbit.org



Скачать Родители через торрент https://i86.fastpic.ru/big/2019/0809/d0/58281afa05762eab7f605557b08bb7d0.jpg Скачать фильм Родители через торрент бесплантно в хорошем качестве Описание: В семье Саши и Маши грядет пополнение. Правда, на этот раз родителями в скором времени должны стать их старший сын Тимофей и его ... 10 10 6
Торрент: Зарегистрирован [2020-12-01 09:02] · скачан: 7 раз
Статус: √ проверено
Размер: 14.94 GB
Как cкачать? Как скачать Родители через торрент | UTorrent

% Раздел Тема Автор DL S | L
TNT serials [ 5.86 GB ] Родители / Сезон: 3 / Серии: 1-20 из 20 [2020 WEBRip] bober100 Скачать
1 | 0

28-11-2019 20:33  

Отключить всю рекламу на сайте

    Дорогой пользователь! Огромная просьба, поблагодарите релизера, оцените раздачу и оставьте свои комментарий, если Вы скачали Родители через торрент бесплатно! Внесите свою лепту в развитие PiratBit!
    Комментировать посты могут только пользователи прошедшие не сложную регистрацию
    Показать сообщения:    

    Родители через торрент
    Скачать бесплатно Родители
    Родители скачать торрент
    Родители смотреть онлайн
    Cкачать фильм Родители бесплатно
    Родители скачать торрент в хорошем качестве
    Родители смотреть онлайн бесплатно в хорошем качестве


    Вы не можете начинать темы
    Вы не можете отвечать на сообщения
    Вы не можете редактировать свои сообщения
    Вы не можете удалять свои сообщения
    Вы не можете голосовать в опросах
    Вы не можете прикреплять файлы к сообщениям
    Вы можете скачивать файлы