Ссылка на приватное зеркало всего за 1$. Внимание количество ограничено!!!

iTunes

iTunes

iTunes

1

iTunes

iTunes

iTunes

iTunes

iTunes

30
pack

$ от Little Big

ВАЖНО

!!Акция!!

Alien_RageХит недели

RePack

Resident Evil 21

ИГРА 18+

pack

RePack

jed

!!Акция!!

Alien_Rage

RePack

fifa19

RePack

Assassins Creed: Odyssey

RePack

NEED FOR SPEED™ PAYBACK

4 сезон

9 сезон

Бесстыжие 9 сезон

Все сериалы

все сериалы на PB.wtf

RePack

FAR CRY 5
  

Терпеть неудачу / Going Under (Эрик Уэртман) [2004, драма, BDRip 720p by msltel] VO piratbit.org

Терпеть неудачу через торрент piratbit.org

Раздают: 1 [ 0 KB/s ]
Размер: 4.42 GB | Добавлен: 2 мес. 18 д. назад | Торрент скачан:16 раз
Скачать  

16-04-2020 06:01 Терпеть неудачу Скачать торрент  

Название: Терпеть неудачу
Оригинальное название: Going Under
Год выпуска: 2004
Страна: США
Жанр: драма
Продолжительность: 01:37:51
Перевод: любительский одноголосый
Режиссер: Эрик Уэртман
В ролях: Гено Лехнер, Роджер Рис, Ричард Иген, Мэри Элизабет Кинг, Джаред Ивэн, Анджела Форрест, Анджела Савилл, Брайан Кин, Клара Ландрат, Марта Миллан

О фильме: Питер, женатый психотерапевт, и Сюзанна знакомы друг с другом только по тематическим садо-мазо встречам. Но однажды они соглашаются встретиться друг с другом в реальной жизни вне ролевых игр. Питер становится все более одержим Сюзанной и решается помочь с её психосексуальными проблемами через их взаимные наиболее невероятные плотские желания и мечты...



Качество: BDRip 720p
Формат: MKV
Видео: MPEG-4 AVC, 5756 Кбит/с, 1280x690, 24 кадр/с
Аудио 1: русский, AC3, 192 kbps, 2 ch, 48 kHz [закадровый одноголосый, den904]
Аудио 2: английский, AC3, 448 kbps, 6 ch, 48 kHz [оригинал]
Главы/чаптеры
Общее
Уникальный идентификатор : 204423821838386224552897964414050512320 (0x99CA98924E83502DB88C2A95AE0C2DC0)
Полное имя : D:\Video\Терпеть неудачу.2004.BDRip 720p by msltel.mkv
Формат : Matroska
Версия формата : Version 4
Размер файла : 4,42 Гбайт
Продолжительность : 1 ч. 37 м.
Общий поток : 6 461 Кбит/сек
Название фильма : Rip by msltel
Дата кодирования : UTC 2020-04-16 02:05:56
Программа кодирования : mkvmerge v8.2.0 ('World of Adventure') 64bit
Библиотека кодирования : libebml v1.3.1 + libmatroska v1.4.2

Видео
Идентификатор : 1
Формат : AVC
Формат/Информация : Advanced Video Codec
Профиль формата : High@L4.1
Настройки формата : CABAC / 9 Ref Frames
Параметр CABAC формата : Да
Параметр RefFrames формата : 9 кадров
Идентификатор кодека : V_MPEG4/ISO/AVC
Продолжительность : 1 ч. 37 м.
Битрейт : 5 756 Кбит/сек
Ширина : 1 280 пикселей
Высота : 690 пикселей
Соотношение сторон : 1,85:1
Режим частоты кадров : Постоянный
Частота кадров : 24,000 кадра/сек
Цветовое пространство : YUV
Субдискретизация насыщенности : 4:2:0
Битовая глубина : 8 бит
Тип развёртки : Прогрессивная
Бит/(Пиксели*Кадры) : 0.272
Размер потока : 3,93 Гбайт (89%)
Библиотека кодирования : x264 core 159 r2991 1771b55
Настройки программы : cabac=1 / ref=9 / deblock=1:-2:-2 / analyse=0x3:0x113 / me=umh / subme=11 / psy=1 / psy_rd=1.00:0.15 / mixed_ref=1 / me_range=32 / chroma_me=1 / trellis=2 / 8x8dct=1 / cqm=0 / deadzone=21,11 / fast_pskip=0 / chroma_qp_offset=-3 / threads=6 / lookahead_threads=1 / sliced_threads=0 / nr=0 / decimate=1 / interlaced=0 / bluray_compat=0 / constrained_intra=0 / bframes=7 / b_pyramid=2 / b_adapt=2 / b_bias=0 / direct=1 / weightb=1 / open_gop=0 / weightp=2 / keyint=230 / keyint_min=23 / scenecut=40 / intra_refresh=0 / rc_lookahead=40 / rc=crf / mbtree=1 / crf=18.0 / qcomp=0.60 / qpmin=0 / qpmax=69 / qpstep=4 / vbv_maxrate=50000 / vbv_bufsize=62500 / crf_max=0.0 / nal_hrd=none / filler=0 / ip_ratio=1.40 / aq=1:1.00
Язык : English
Default : Да
Forced : Нет

Аудио #1
Идентификатор : 2
Формат : AC-3
Формат/Информация : Audio Coding 3
Коммерческое название : Dolby Digital
Идентификатор кодека : A_AC3
Продолжительность : 1 ч. 37 м.
Вид битрейта : Постоянный
Битрейт : 256 Кбит/сек
Каналы : 2 канала
Channel layout : L R
Частота : 48,0 КГц
Частота кадров : 31,250 кадров/сек (1536 SPF)
Метод сжатия : С потерями
Размер потока : 179 Мбайт (4%)
Заголовок : den904
Язык : Russian
Service kind : Complete Main
Default : Нет
Forced : Нет

Аудио #2
Идентификатор : 3
Формат : AC-3
Формат/Информация : Audio Coding 3
Коммерческое название : Dolby Digital
Идентификатор кодека : A_AC3
Продолжительность : 1 ч. 37 м.
Вид битрейта : Постоянный
Битрейт : 448 Кбит/сек
Каналы : 6 каналов
Channel layout : L R C LFE Ls Rs
Частота : 48,0 КГц
Частота кадров : 31,250 кадров/сек (1536 SPF)
Метод сжатия : С потерями
Размер потока : 314 Мбайт (7%)
Заголовок : original
Язык : English
Service kind : Complete Main
Default : Нет
Forced : Нет

Меню
00:00:00.000 : en:Chapter 01
00:07:47.417 : en:Chapter 02
00:19:35.500 : en:Chapter 03
00:31:28.542 : en:Chapter 04
00:44:30.542 : en:Chapter 05
00:57:14.083 : en:Chapter 06
01:08:06.917 : en:Chapter 07
01:25:59.250 : en:Chapter 08
01:35:27.333 : en:Chapter 09
piratbit.org



Скачать Терпеть неудачу через торрент https://d.radikal.ru/d14/2004/ff/f97d7863be17.jpg Скачать фильм Терпеть неудачу через торрент бесплантно в хорошем качестве О фильме: Питер, женатый психотерапевт, и Сюзанна знакомы друг с другом только по тематическим садо-мазо встречам. Но однажды они ... 5 10 1
Торрент: Зарегистрирован [2020-04-16 06:01] · скачан: 16 раз
Статус: T временная
Размер: 4.42 GB
Как cкачать? Как скачать Терпеть неудачу через торрент | qTorrent

% Раздел Тема Автор DL S | L
T Фильмы [HD 720p, 1080p] (Звук Cam, VO, DVO) [ 11.01 GB ] Терпеть неудачу / Going Under [2004 BDRip 1080p by msltel] VO msltel Скачать
2 | 0
T Фильмы 2001-2005 [ 2.59 GB ] Терпеть неудачу / Going Under [2004 BDRip-AVC by msltel] VO msltel Скачать
2 | 0

28-11-2019 20:33  

Отключить всю рекламу на сайте

    Дорогой пользователь! Огромная просьба, поблагодарите релизера, оцените раздачу и оставьте свои комментарий, если Вы скачали Терпеть неудачу через торрент бесплатно! Внесите свою лепту в развитие PiratBit!
    Комментировать посты могут только пользователи прошедшие не сложную регистрацию
    Показать сообщения:    

    Терпеть неудачу через торрент
    Скачать бесплатно Терпеть неудачу
    Терпеть неудачу скачать торрент
    Терпеть неудачу смотреть онлайн
    Cкачать фильм Терпеть неудачу бесплатно
    Терпеть неудачу скачать торрент в хорошем качестве
    Терпеть неудачу смотреть онлайн бесплатно в хорошем качестве


    Вы не можете начинать темы
    Вы не можете отвечать на сообщения
    Вы не можете редактировать свои сообщения
    Вы не можете удалять свои сообщения
    Вы не можете голосовать в опросах
    Вы не можете прикреплять файлы к сообщениям
    Вы можете скачивать файлы