Доктор Стрэндж

Лицензия

Добыча

Дубляж

Дом дракона

1 сезон

Тор

Дубляж

В эфире

Дубляж

Там, где раки поют

MVO

Властелин колец

1 сезон

Ultimate

pack

Рекомендуем

30

Пиратка

ВАЖНО

ВАЖНО

Ghostwire

Пиратка

jed

RePack

nioh2

RePack

RDR2

RePack

NEED FOR SPEED™ PAYBACK

RePack

скачать торрент

Кинопоиск HD

Острые козырьки 6 сезон

6 сезон

FAR CRY 6

RePack

скачать торрент

Лицензия

скачать торрент

MVO

1

1 сезон

скачать торрент

1 сезон

скачать торрент

Лицензия

  

Под водой / Underwater (Уильям Юбэнк) [2020, ужасы, боевик, BDRip-AVC] Дубляж [iTunes]

Под водой через торрент piratbit.org

Размер: 2.14 GB | Добавлен: 2 года 7 мес. назад | Торрент скачан:861 раз
Смотреть онлайн | Скачать   

17-04-2020 09:46 Под водой Скачать торрент  

Под водой | Underwater Год выпуска: 2020
Страна: США
Студия: 20th Century Fox Film Corporation, Chernin Entertainment, TSG Entertainment, Twentieth Century Fox
Жанр: ужасы, боевик
Продолжительность: 01:34:58
Перевод: Дублированный | iTunes
Субтитры: Русские (Forced, Full), английские (Full, SDH)

Режиссер: Уильям Юбэнк

rating

В ролях: Кристен Стюарт, Венсан Кассель, ТиДжей Миллер, Джессика Хенвик, Джон Галлахер мл., Мамуду Ати, Фиона Рене, Ганнер Райт, Аманда Труп

Описание: Группа сотрудников большого подводного бурильного комплекса, располагающегося на дне Марианской впадины на глубине 11 км, переживает внезапное разрушение станции и сталкивается с неведомым океанским ужасом.

Качество: BDRip-AVC
Формат: MKV

Видео: 1024x426 (2,40:1), 23,976 fps, MPEG-4 AVC ~ 2386 Kbps avg, 0.228 bit/pixel
Аудио#1: AC3, 48 kHz, 6 ch, ~384.00 kbps avg | русский | iTunes
Аудио#2: AC3, 48 kHz, 6 ch, ~448.00 kbps avg | английский | Оригинал
скриншот  скриншот  скриншот  скриншот  скриншот  

Общее
Уникальный идентификатор : 172280665111033891879554431797464359281 (0x819C0C96E7B409CD544D5B8C74476171)
Полное имя : Underwater.2020.iT.BDRip.2.14Gb.x264.mkv
Формат : Matroska
Версия формата : Version 4
Размер файла : 2,14 Гбайт
Продолжительность : 1 ч. 34 м.
Общий поток : 3220 Кбит/сек
Название фильма : Под водой / Underwater (2020)
Дата кодирования : UTC 2020-04-16 22:04:19
Программа кодирования : mkvmerge v41.0.0 ('Smarra') 64-bit
Библиотека кодирования : libebml v1.3.9 + libmatroska v1.5.2
Обложка : Yes
Attachments : cover.jpg / cover.jpg

Видео
Идентификатор : 1
Формат : AVC
Формат/Информация : Advanced Video Codec
Профиль формата : High@L4.1
Настройки формата : CABAC / 10 Ref Frames
Параметр CABAC формата : Да
Параметр RefFrames формата : 10 кадров
Идентификатор кодека : V_MPEG4/ISO/AVC
Продолжительность : 1 ч. 34 м.
Битрейт : 2386 Кбит/сек
Ширина : 1024 пикселя
Высота : 426 пикселей
Соотношение сторон : 2,40:1
Режим частоты кадров : Постоянный
Частота кадров : 23,976 (24000/1001) кадра/сек
Цветовое пространство : YUV
Субдискретизация насыщенности : 4:2:0
Битовая глубина : 8 бит
Тип развёртки : Прогрессивная
Бит/(Пиксели*Кадры) : 0.228
Размер потока : 1,58 Гбайт (74%)
Заголовок : #stillet
Библиотека кодирования : x264 core 152 r2851bm ba24899
Настройки программы : cabac=1 / ref=10 / deblock=1:-3:-3 / analyse=0x3:0x113 / me=umh / subme=11 / psy=1 / psy_rd=1.00:0.15 / mixed_ref=1 / me_range=32 / chroma_me=1 / trellis=2 / 8x8dct=1 / cqm=0 / deadzone=21,11 / fast_pskip=0 / chroma_qp_offset=-3 / threads=8 / lookahead_threads=3 / sliced_threads=0 / nr=0 / decimate=0 / interlaced=0 / bluray_compat=0 / constrained_intra=0 / bframes=10 / b_pyramid=2 / b_adapt=2 / b_bias=0 / direct=3 / weightb=1 / open_gop=0 / weightp=2 / keyint=240 / keyint_min=23 / scenecut=40 / intra_refresh=0 / rc=2pass / mbtree=0 / bitrate=2386 / ratetol=1.0 / qcomp=0.60 / qpmin=0 / qpmax=69 / qpstep=4 / cplxblur=20.0 / qblur=0.5 / ip_ratio=1.40 / pb_ratio=1.30 / aq=1:1.00
Язык : English
Default : Да
Forced : Нет

Аудио #1
Идентификатор : 2
Формат : AC-3
Формат/Информация : Audio Coding 3
Коммерческое название : Dolby Digital
Идентификатор кодека : A_AC3
Продолжительность : 1 ч. 34 м.
Вид битрейта : Постоянный
Битрейт : 384 Кбит/сек
Каналы : 6 каналов
ChannelLayout : L R C LFE Ls Rs
Частота : 48,0 КГц
Частота кадров : 31,250 кадров/сек (1536 SPF)
Метод сжатия : С потерями
Размер потока : 261 Мбайт (12%)
Заголовок : iTunes
Язык : Russian
Default : Да
Forced : Да

Аудио #2
Идентификатор : 3
Формат : AC-3
Формат/Информация : Audio Coding 3
Коммерческое название : Dolby Digital
Идентификатор кодека : A_AC3
Продолжительность : 1 ч. 34 м.
Вид битрейта : Постоянный
Битрейт : 448 Кбит/сек
Каналы : 6 каналов
ChannelLayout : L R C LFE Ls Rs
Частота : 48,0 КГц
Частота кадров : 31,250 кадров/сек (1536 SPF)
Метод сжатия : С потерями
Размер потока : 304 Мбайт (14%)
Язык : English
Default : Нет
Forced : Нет

Текст #1
Идентификатор : 4
Формат : UTF-8
Идентификатор кодека : S_TEXT/UTF8
Идентификатор кодека/Информация : UTF-8 Plain Text
Продолжительность : 1 ч. 33 м.
Битрейт : 5 бит/сек
ElementCount : 58
Размер потока : 3,46 Кбайт (0%)
Заголовок : Forced
Язык : Russian
Default : Да
Forced : Да

Текст #2
Идентификатор : 5
Формат : UTF-8
Идентификатор кодека : S_TEXT/UTF8
Идентификатор кодека/Информация : UTF-8 Plain Text
Продолжительность : 1 ч. 33 м.
Битрейт : 73 бит/сек
ElementCount : 1141
Размер потока : 50,2 Кбайт (0%)
Заголовок : Full
Язык : Russian
Default : Нет
Forced : Нет

Текст #3
Идентификатор : 6
Формат : UTF-8
Идентификатор кодека : S_TEXT/UTF8
Идентификатор кодека/Информация : UTF-8 Plain Text
Продолжительность : 1 ч. 30 м.
Битрейт : 52 бит/сек
ElementCount : 1182
Размер потока : 34,4 Кбайт (0%)
Заголовок : Full
Язык : English
Default : Нет
Forced : Нет

Текст #4
Идентификатор : 7
Формат : UTF-8
Идентификатор кодека : S_TEXT/UTF8
Идентификатор кодека/Информация : UTF-8 Plain Text
Продолжительность : 1 ч. 32 м.
Битрейт : 60 бит/сек
ElementCount : 1387
Размер потока : 40,7 Кбайт (0%)
Заголовок : SDH
Язык : English
Default : Нет
Forced : Нет

Меню
00:00:00.000 : en:Chapter 01
00:06:17.627 : en:Chapter 02
00:09:39.537 : en:Chapter 03
00:13:25.638 : en:Chapter 04
00:16:21.897 : en:Chapter 05
00:20:40.322 : en:Chapter 06
00:22:51.495 : en:Chapter 07
00:27:11.171 : en:Chapter 08
00:30:51.140 : en:Chapter 09
00:34:26.647 : en:Chapter 10
00:39:25.154 : en:Chapter 11
00:43:41.785 : en:Chapter 12
00:48:40.167 : en:Chapter 13
00:53:58.109 : en:Chapter 14
00:56:00.690 : en:Chapter 15
01:01:53.543 : en:Chapter 16
01:05:26.172 : en:Chapter 17
01:08:12.588 : en:Chapter 18
01:13:52.886 : en:Chapter 19
01:16:04.476 : en:Chapter 20
01:18:34.835 : en:Chapter 21
01:21:22.085 : en:Chapter 22
01:23:04.062 : en:Chapter 23
01:29:51.803 : en:Chapter 24




Скачать Под водой через торрент https://a.radikal.ru/a11/2004/dc/a69ddeacc92d.png Скачать, смотреть онлайн Под водой бесплантно в хорошем качестве Описание: Группа сотрудников большого подводного бурильного комплекса, располагающегося на дне Марианской впадины на глубине 11 км, ... 10 10 17
Info! Золотая раздача, скачанное не засчитывается.
Торрент: Зарегистрирован [2020-04-17 09:46] · скачан: 861 раз
Статус: √ проверено
Размер: 2.14 GB
Как cкачать? Как скачать Под водой через торрент | UTorrent

% Раздел Тема Автор DL S | L
Фильмы [HD 720p, 1080p] (Хороший звук DUB, MVO) [ 3.7 GB ] Под водой / Underwater | iTunes | 720p bober100 Скачать
2 | 0
Фильмы 2019-2020 [DVDrip, WEB-DLRip, HDrip] (DUB, MVO) [ 1.42 GB ] Под водой / Underwater | Лицензия | BDRip Twi7ter Скачать
1 | 0
Фильмы 2019-2020 [DVDrip, WEB-DLRip, HDrip] (DUB, MVO) [ 1.42 GB ] Под водой / Underwater | iTunes | BDRip-AVC bober100 Скачать
1 | 0
Фильмы 2019-2020 [DVDrip, WEB-DLRip, HDrip] (DUB, MVO) [ 714 MB ] Под водой / Underwater | iTunes" | HDRip, Дубляж "iTunes" coc900 Скачать
2 | 0
Фильмы 2019-2020 [DVDrip, WEB-DLRip, HDrip] (DUB, MVO) [ 1.46 GB ] Под водой / Underwater | iTunes | BDRip bober100 Скачать
2 | 0
Фильмы (Blu-ray, BD-Remux, HDDVD) [ 21.18 GB ] Под водой / Underwater | iTunes | BD Remux 1080p bober100 Скачать
2 | 0
T Фильмы 2019-2020 (Звук TS, Cam, VO, DVO) [ 1.46 GB ] Под водой / Underwater | | BDRip Twi7ter Скачать
1 | 0

28-11-2019 20:33  


Отключить вcю реклaмy на сайте, в т.ч. и в плеере онлайн просмотра!

    Дорогой пользователь! Огромная просьба, поблагодарите релизера, оцените раздачу и оставьте свои комментарий, если Вы скачали Под водой через торрент бесплатно!!
    Комментировать посты могут только пользователи прошедшие не сложную регистрацию
    Показать сообщения:    


    Под водой через торрент
    Скачать бесплатно Под водой
    Под водой скачать торрент
    Под водой смотреть онлайн
    Cкачать фильм Под водой бесплатно
    Под водой скачать торрент в хорошем качестве
    Под водой смотреть онлайн бесплатно в хорошем качестве
    Вы не можете начинать темы
    Вы не можете отвечать на сообщения
    Вы не можете редактировать свои сообщения
    Вы не можете удалять свои сообщения
    Вы не можете голосовать в опросах
    Вы не можете прикреплять файлы к сообщениям
    Вы можете скачивать файлы
    Под водой / Underwater [2020, ужасы, боевик, BDRip-AVC] Дубляж [iTunes] смотреть онлайн, скачать торрент picoco.icu