Доктор Стрэндж

Лицензия

Добыча

Дубляж

Дом дракона

1 сезон

Тор

Дубляж

В эфире

Дубляж

Там, где раки поют

MVO

Властелин колец

1 сезон

Ultimate

pack

Рекомендуем

30

Пиратка

ВАЖНО

ВАЖНО

Ghostwire

Пиратка

jed

RePack

nioh2

RePack

RDR2

RePack

NEED FOR SPEED™ PAYBACK

RePack

скачать торрент

Кинопоиск HD

Острые козырьки 6 сезон

6 сезон

FAR CRY 6

RePack

скачать торрент

Лицензия

скачать торрент

MVO

1

1 сезон

скачать торрент

1 сезон

скачать торрент

Лицензия

  

Милый мальчик / Honey Boy (Альма Харель) [2019, Драма, BDRip-AVC] MVO [iTunes] - ExKinoRay

Милый мальчик через торрент piratbit.org

Размер: 1.96 GB | Добавлен: 2 года 7 мес. назад | Торрент скачан:46 раз
Смотреть онлайн | Скачать   

18-04-2020 23:16 Милый мальчик Скачать торрент  

Милый мальчик / Honey Boy
Год выпуска: 2019
Страна: США
Жанр: Драма
Продолжительность: 01:34:36
Перевод: Профессиональный (многоголосый)
Тип релиза: iTunes
Субтитры: Русские, английские

Режиссер: Альма Харель

rating

В ролях: Шайа ЛаБаф, Ноа Джуп, Лукас Хеджес, Байрон Бауэрс, Лора Сан Джакомо, Наташа Лионн, Майка Монро, Клифтон Коллинз мл., Марио Понце

Описание: Молодой, но уже сильно пьющий актёр Отис Лорт попадает в аварию, а оттуда — в реабилитационную клинику. Чтобы разобраться в причинах зависимости и тяги к саморазрушению, терапевт советует ему вспомнить и записать яркие моменты прошлого. Отис начинает перебирать события в воспоминаниях, где основной фигурой часто становится его отец, терзавший мальчика морально, а иногда и физически, но на самом деле просто считавший, что знает, как сыну лучше.

Доп. информация: • Фильм основан на биографии исполнителя главной роли Шайи ЛаБафа.

Качество: BDRip-AVC
Формат: MKV
Видео кодек: H.264
Аудио кодек: AC3
Видео: MPEG-4 AVC, 2125 Kбит/с, 1024x432
Аудио#1: Русский (AC3, 6 ch, 384 Кбит/с) MVO (iTunes)
Аудио#2: Английский (AC3, 6 ch, 448 Кбит/с) Original
VK релиз-группы
Общее
Уникальный идентификатор : 176299030670971551374696939394677392585 (0x84A1F54ECB8742F2A1A56FE2EB30C4C9)
Полное имя : D:\Раздача\Milyyi.Malchik.2019.BDRip-AVC.ExKinoRay.mkv
Формат : Matroska
Версия формата : Version 4 / Version 2
Размер файла : 1,96 Гбайт
Продолжительность : 1 ч. 34 м.
Общий поток : 2959 Кбит/сек
Название фильма : Honey Boy 2019 BDRip-AVC.grab777 & ExKinoRay
Дата кодирования : UTC 2020-04-18 07:17:03
Программа кодирования : mkvmerge v7.3.0 ('Nouages') 64bit built on Oct 22 2014 18:53:34
Библиотека кодирования : libebml v1.3.0 + libmatroska v1.4.1

Видео
Идентификатор : 1
Формат : AVC
Формат/Информация : Advanced Video Codec
Профиль формата : High@L4.1
Настройки формата : CABAC / 12 Ref Frames
Параметр CABAC формата : Да
Параметр RefFrames формата : 12 кадров
Идентификатор кодека : V_MPEG4/ISO/AVC
Продолжительность : 1 ч. 34 м.
Битрейт : 2125 Кбит/сек
Ширина : 1024 пикселя
Высота : 432 пикселя
Соотношение сторон : 2,40:1
Соотношение сторон в оригинале : 2,40:1
Режим частоты кадров : Переменный
Частота кадров : 23,976 (23976/1000) кадра/сек
Частота кадров в оригинале : 23,976 (24000/1001) кадра/сек
Цветовое пространство : YUV
Субдискретизация насыщенности : 4:2:0
Битовая глубина : 8 бит
Тип развёртки : Прогрессивная
Бит/(Пиксели*Кадры) : 0.200
Размер потока : 1,40 Гбайт (72%)
Заголовок : Rip by grab777
Библиотека кодирования : x264 core 148 r2665M a01e339
Настройки программы : cabac=1 / ref=12 / deblock=1:-2:-2 / analyse=0x3:0x133 / me=umh / subme=10 / psy=1 / psy_rd=1.00:0.15 / mixed_ref=1 / me_range=32 / chroma_me=1 / trellis=2 / 8x8dct=1 / cqm=0 / deadzone=21,11 / fast_pskip=0 / chroma_qp_offset=-3 / threads=5 / lookahead_threads=1 / sliced_threads=0 / nr=0 / decimate=1 / interlaced=0 / bluray_compat=0 / constrained_intra=0 / bframes=10 / b_pyramid=2 / b_adapt=2 / b_bias=0 / direct=3 / weightb=1 / open_gop=0 / weightp=2 / keyint=230 / keyint_min=23 / scenecut=40 / intra_refresh=0 / rc_lookahead=40 / rc=crf / mbtree=1 / crf=17.0 / qcomp=0.90 / qpmin=1 / qpmax=69 / qpstep=4 / vbv_maxrate=30000 / vbv_bufsize=40000 / crf_max=0.0 / nal_hrd=none / filler=0 / ip_ratio=1.40 / aq=1:0.00
Язык : English
Default : Да
Forced : Нет

Аудио #1
Идентификатор : 2
Формат : AC-3
Формат/Информация : Audio Coding 3
Параметр Endianness формата : Big
Идентификатор кодека : A_AC3
Продолжительность : 1 ч. 34 м.
Вид битрейта : Постоянный
Битрейт : 384 Кбит/сек
Каналы : 6 каналов
Расположение каналов : Front: L C R, Side: L R, LFE
Частота : 48,0 КГц
Частота кадров : 31,250 кадров/сек (1536 SPF)
Битовая глубина : 16 бит
Метод сжатия : С потерями
Размер потока : 260 Мбайт (13%)
Заголовок : MVO (iTunes)
Язык : Russian
ServiceKind/String : Complete Main
Default : Да
Forced : Да

Аудио #2
Идентификатор : 3
Формат : AC-3
Формат/Информация : Audio Coding 3
Параметр Endianness формата : Big
Идентификатор кодека : A_AC3
Продолжительность : 1 ч. 34 м.
Вид битрейта : Постоянный
Битрейт : 448 Кбит/сек
Каналы : 6 каналов
Расположение каналов : Front: L C R, Side: L R, LFE
Частота : 48,0 КГц
Частота кадров : 31,250 кадров/сек (1536 SPF)
Битовая глубина : 16 бит
Метод сжатия : С потерями
Размер потока : 303 Мбайт (15%)
Заголовок : Original
Язык : English
ServiceKind/String : Complete Main
Default : Нет
Forced : Нет

Текст #1
Идентификатор : 4
Формат : UTF-8
Идентификатор кодека : S_TEXT/UTF8
Идентификатор кодека/Информация : UTF-8 Plain Text
Продолжительность : 1 ч. 32 м.
Битрейт : 70 бит/сек
ElementCount : 957
Размер потока : 48,2 Кбайт (0%)
Заголовок : Full
Язык : Russian
Default : Нет
Forced : Нет

Текст #2
Идентификатор : 5
Формат : UTF-8
Идентификатор кодека : S_TEXT/UTF8
Идентификатор кодека/Информация : UTF-8 Plain Text
Продолжительность : 1 ч. 30 м.
Битрейт : 64 бит/сек
ElementCount : 1087
Размер потока : 42,3 Кбайт (0%)
Заголовок : Full
Язык : English
Default : Нет
Forced : Нет

Меню
00:00:00.000 : :Chapter 01
00:06:27.762 : :Chapter 02
00:10:56.239 : :Chapter 03
00:16:25.693 : :Chapter 04
00:21:08.851 : :Chapter 05
00:24:30.761 : :Chapter 06
00:29:26.098 : :Chapter 07
00:36:49.124 : :Chapter 08
00:40:11.701 : :Chapter 09
00:44:16.404 : :Chapter 10
00:50:54.260 : :Chapter 11
00:57:42.626 : :Chapter 12
01:04:38.875 : :Chapter 13
01:09:39.801 : :Chapter 14
01:15:43.497 : :Chapter 15
01:27:51.266 : :Chapter 16




Скачать Милый мальчик через торрент https://pic1.kartinco.top/images/12/3yhum.jpg Скачать, смотреть онлайн Милый мальчик бесплантно в хорошем качестве Описание: Молодой, но уже сильно пьющий актёр Отис Лорт попадает в аварию, а оттуда — в реабилитационную клинику. Чтобы разобраться в ... 5 10 1
Info! Золотая раздача, скачанное не засчитывается.
Торрент: Зарегистрирован [2020-04-18 23:16] · скачан: 46 раз
Статус: √ проверено
Размер: 1.96 GB
Как cкачать? Как скачать Милый мальчик через торрент | UTorrent

28-11-2019 20:33  


Отключить вcю реклaмy на сайте, в т.ч. и в плеере онлайн просмотра!

    Дорогой пользователь! Огромная просьба, поблагодарите релизера, оцените раздачу и оставьте свои комментарий, если Вы скачали Милый мальчик через торрент бесплатно!!
    Комментировать посты могут только пользователи прошедшие не сложную регистрацию
    Показать сообщения:    


    Милый мальчик через торрент
    Скачать бесплатно Милый мальчик
    Милый мальчик скачать торрент
    Милый мальчик смотреть онлайн
    Cкачать фильм Милый мальчик бесплатно
    Милый мальчик скачать торрент в хорошем качестве
    Милый мальчик смотреть онлайн бесплатно в хорошем качестве
    Вы не можете начинать темы
    Вы не можете отвечать на сообщения
    Вы не можете редактировать свои сообщения
    Вы не можете удалять свои сообщения
    Вы не можете голосовать в опросах
    Вы не можете прикреплять файлы к сообщениям
    Вы можете скачивать файлы
    Милый мальчик / Honey Boy [2019, Драма, BDRip-AVC] MVO [iTunes] - ExKinoRay смотреть онлайн, скачать торрент picoco.icu