2 сезон

iTunes

WEBRip

1

2 сезон

iTunes

1 сезон

1 сезон

RePack

30

Ultimate

ВАЖНО

ИГРА 18+

pack

RePack

MK11
pack

Легкие деньги

RePack

jed

RePack

fifa19

RePack

RDR2

RePack

NEED FOR SPEED™ PAYBACK

4 сезон

9 сезон

Бесстыжие 9 сезон

Все сериалы

все сериалы на PB.wtf

RePack

FAR CRY 5

Anonymous, доброй ночи, мы не успеваем собрать деньги на оплату серверов за февраль, помогите нам пожалуйста в это трудное время. В качестве благодарности мы отключим Вам всю рекламу на сайте (укажите свой ник в строку Ваше имя)!

×
  
Magnet ссылка

Мої думки тихі (Антонио Лукич) [2019, Драма, комедия, WEB-DLRip-AVC] [UKR] - ExKinoRay piratbit.org

Мої думки тихі через торрент piratbit.org

Размер: 2.36 GB | Добавлен: 10 мес. назад | Торрент скачан:43 раза
Скачать  

21-04-2020 01:23 Мої думки тихі Скачать торрент  

Мої думки тихі
Год выпуска: 2019
Страна: Украина
Жанр: Драма, комедия
Продолжительность: 01:43:29
Перевод: Оригинал (Украинский)
Субтитры: Нет

Режиссер: Антонио Лукич

rating

В ролях: Ирма Витовская, Андрей Лидаговский

Описание: Молодому звукорежиссеру Вадиму выпадает случай начать жизнь с чистого листа. Простая задача — записать голоса закарпатских животных — может стать его шансом навсегда покинуть «неудобную Украину» и отправиться в «привлекательную Канаду». Уйти от проблем. Однако все оказывается не так легко, когда главным партнером в новом проекте оказывается мама Вадима.

Качество: WEB-DLRip-AVC
Формат: MKV
Видео кодек: H.264
Аудио кодек: AC3
Видео: MPEG-4 AVC, 3070 Кбит/с, 1024x552
Аудио#1: AC3, 2 ch, 192 Кбит/с

Релиз от:
Общее
Уникальный идентификатор : 211887568510432565605687185382752948167 (0x9F680FB19A7F3A339AC55FA7C8488FC7)
Полное имя : D:\Раздача\Moi.Dumky.Tyhi.2019.WEB-DLRip-AVC.ExKinoRay.mkv
Формат : Matroska
Версия формата : Version 4 / Version 2
Размер файла : 2,36 Гбайт
Продолжительность : 1 ч. 43 м.
Общий поток : 3264 Кбит/сек
Название фильма : Мої думки тихі.2019.WEB-DLRip-AVC.grab777 & ExKinoRay
Дата кодирования : UTC 2020-04-20 11:00:16
Программа кодирования : mkvmerge v7.3.0 ('Nouages') 64bit built on Oct 22 2014 18:53:34
Библиотека кодирования : libebml v1.3.0 + libmatroska v1.4.1

Видео
Идентификатор : 1
Формат : AVC
Формат/Информация : Advanced Video Codec
Профиль формата : High@L4.1
Настройки формата : CABAC / 12 Ref Frames
Параметр CABAC формата : Да
Параметр RefFrames формата : 12 кадров
Идентификатор кодека : V_MPEG4/ISO/AVC
Продолжительность : 1 ч. 43 м.
Битрейт : 3070 Кбит/сек
Ширина : 1024 пикселя
Высота : 552 пикселя
Соотношение сторон : 1,85:1
Режим частоты кадров : Переменный
Частота кадров : 24,000 кадра/сек
Цветовое пространство : YUV
Субдискретизация насыщенности : 4:2:0
Битовая глубина : 8 бит
Тип развёртки : Прогрессивная
Бит/(Пиксели*Кадры) : 0.226
Размер потока : 2,22 Гбайт (94%)
Заголовок : Rip by grab777
Библиотека кодирования : x264 core 148 r2665M a01e339
Настройки программы : cabac=1 / ref=12 / deblock=1:-2:-2 / analyse=0x3:0x133 / me=umh / subme=10 / psy=1 / psy_rd=1.00:0.15 / mixed_ref=1 / me_range=32 / chroma_me=1 / trellis=2 / 8x8dct=1 / cqm=0 / deadzone=21,11 / fast_pskip=0 / chroma_qp_offset=-3 / threads=5 / lookahead_threads=1 / sliced_threads=0 / nr=0 / decimate=1 / interlaced=0 / bluray_compat=0 / constrained_intra=0 / bframes=10 / b_pyramid=2 / b_adapt=2 / b_bias=0 / direct=3 / weightb=1 / open_gop=0 / weightp=2 / keyint=240 / keyint_min=24 / scenecut=40 / intra_refresh=0 / rc_lookahead=40 / rc=crf / mbtree=1 / crf=15.0 / qcomp=0.90 / qpmin=1 / qpmax=69 / qpstep=4 / vbv_maxrate=30000 / vbv_bufsize=40000 / crf_max=0.0 / nal_hrd=none / filler=0 / ip_ratio=1.40 / aq=1:0.00
Язык : Ukrainian
Default : Да
Forced : Нет
Цветовой диапазон : Limited
Основные цвета : BT.709
Характеристики трансфера : BT.709
Коэффициенты матрицы : BT.709

Аудио
Идентификатор : 2
Формат : AC-3
Формат/Информация : Audio Coding 3
Параметр Endianness формата : Big
Идентификатор кодека : A_AC3
Продолжительность : 1 ч. 43 м.
Вид битрейта : Постоянный
Битрейт : 192 Кбит/сек
Каналы : 2 канала
Расположение каналов : Front: L R
Частота : 48,0 КГц
Частота кадров : 31,250 кадров/сек (1536 SPF)
Битовая глубина : 16 бит
Метод сжатия : С потерями
Размер потока : 142 Мбайт (6%)
Заголовок : Original
Язык : Ukrainian
ServiceKind/String : Complete Main
Default : Да
Forced : Да

Меню
00:00:00.000 : :Глава 1
00:13:41.875 : :Глава 2
00:28:48.125 : :Глава 3
00:41:21.249 : :Глава 4
00:52:01.875 : :Глава 5
01:04:56.875 : :Глава 6
01:14:25.625 : :Глава 7
01:23:16.875 : :Глава 8

piratbit.org



Скачать Мої думки тихі через торрент https://pic1.kartinco.top/images/12/q55vr.jpg Скачать фильм Мої думки тихі через торрент бесплантно в хорошем качестве Описание: Молодому звукорежиссеру Вадиму выпадает случай начать жизнь с чистого листа. Простая задача — записать голоса закарпатских ... 10 10 3
Торрент: Зарегистрирован [2020-04-21 01:23] · скачан: 43 раз
Статус: √ проверено
Размер: 2.36 GB
Как cкачать? Как скачать Мої думки тихі через торрент | UTorrent

28-11-2019 20:33  

Отключить всю рекламу на сайте

    Дорогой пользователь! Огромная просьба, поблагодарите релизера, оцените раздачу и оставьте свои комментарий, если Вы скачали Мої думки тихі через торрент бесплатно! Внесите свою лепту в развитие PiratBit!
    Комментировать посты могут только пользователи прошедшие не сложную регистрацию
    Показать сообщения:    

    Мої думки тихі через торрент
    Скачать бесплатно Мої думки тихі
    Мої думки тихі скачать торрент
    Мої думки тихі смотреть онлайн
    Cкачать фильм Мої думки тихі бесплатно
    Мої думки тихі скачать торрент в хорошем качестве
    Мої думки тихі смотреть онлайн бесплатно в хорошем качестве


    Вы не можете начинать темы
    Вы не можете отвечать на сообщения
    Вы не можете редактировать свои сообщения
    Вы не можете удалять свои сообщения
    Вы не можете голосовать в опросах
    Вы не можете прикреплять файлы к сообщениям
    Вы можете скачивать файлы