Присоединяйтесь к нам в Telegram!, здесь всегда актуальный адрес сайта, оперативная поддержка и многое другое!!

>

5.9

iTunes

7.4

iTunes

9.4

1 сезон

1

7.4

2 сезон

7.2

iTunes

7.3

1 сезон

13

6.1

iTunes

8.3

GOG

30

ULTIMATE

pack

9.9

Лицензия

ВАЖНО

ИГРА 18+

pack

7.3

RePack

MK11

7.7

RePack

jed

7.8

RePack

fifa19

8.5

RePack

RDR2

RePack

NEED FOR SPEED™ PAYBACK

5 сезон

9 сезон

Бесстыжие 9 сезон

Все сериалы

все сериалы на PB.wtf

RePack

FAR CRY 5

Anonymous, добрый день, мы катастрофически не успеваем собрать деньги на оплату серверов, помогите нам пожалуйста 5,10,15р., для нас важна любая помощь . В качестве благодарности мы отключим Вам всю рекламу на сайте (укажите свой ник в строку Ваше имя)!

×
  
Magnet ссылка

Американская история ужасов / American Horror Story / Сезон: 1-9 / Серии: 1-103 из 103 (Брэдли Букер, Альфонсо Гомес-Рехон, Майкл Аппендаль) [2011-2019, Ужасы, триллер, драма, фантастика, детектив, WEB-DLRip] MVO [LostFilm] piratbit.org

Американская история ужасов через торрент piratbit.org

Размер: 57.39 GB | Добавлен: 1 год 7 мес. назад | Торрент скачан:89 раз
Смотреть онлайн Американская история ужасов | Скачать    Ребята, помогите собрать деньги на оплату серверов!!!

21-04-2020 12:45 Американская история ужасов Скачать торрент  

Американская история ужасов | American Horror Story
Год выпуска: 2011-2019
Страна: США
Жанр: Ужасы, триллер, драма, фантастика, детектив
Продолжительность: ~ 00:48:00
Перевод: Профессиональный (многоголосый) | LostFilm
Субтитры: отсутствуют

Режиссер: Брэдли Букер, Альфонсо Гомес-Рехон, Майкл Аппендаль

rating

В ролях: Эван Питерс, Сара Полсон, Дэнис О’Хэр, Кэти Бейтс, Джессика Лэнг, Фрэнсис Конрой, Лили Рэйб, Анджела Бассетт, Эмма Робертс, Шайен Джексон, Александра Даддарио, Таисса Фармига, Конни Бриттон, Кейт Мара, Александра Брекенридж, Кьюба Гудинг мл., Анджела Сарафян, Билли Портер, Нил Патрик Харрис, Лэнс Реддик, Адам Левин, Иэн МакШейн, Наоми Кэмпбелл, Мена Сувари, Дермот Малруни, Марк Марголис, Ли Тергесен, Фредрик Лене, Билли Лурд, Лесли Эрин Гроссман, Уэс Бентли, Дилан МакДермотт, Закари Куинто, Леди Гага, Майкл Чиклис, Мэтт Бомер, Джеймс Кромуэлл, Элисон Пилл

Описание: «Американская история ужасов» — это телевизионная хоррор-антология от именитых американских продюсеров Брэда Фалчака и Райана Мерфи. Действие каждого ее сезона разворачивается в новом месте, представляя зрителям отдельную самостоятельную историю с целой галереей внушающих ужас и отвращение персонажей. В сериале, являющем собой гремучую смесь всех наших детских страхов и ночных кошмаров, а также отсылок к культовым ужастикам, можно встретить не только хладнокровных серийных маньяков, но и любителей раскапывать могилы, нимфоманок, сиамских близнецов, верховную жрицу луизианского культа вуду, экспериментирующих над своими пациентами врачей и даже человека-лобстера. Многие герои имеют реальных прототипов, что делает события «Американской истории ужасов» еще более впечатляющими и выводящими из равновесия. Уникальный формат шоу и его успех у зрителей позволяют создателям привлекать к съемкам звезд первой величины, таких как Джессика Лэнг и Леди Гага. Многие из сотрудничающих с Мерфи актеров с охотой соглашаются на новые роли в последующих сезонах. За время своей трансляции на канале FX шоу стабильно удерживало высокие рейтинги, удостоилось множества престижных наград и номинаций.

Качество: WEB-DLRip | чистый видеоряд |
Формат: AVI

Видео: 720x400, XviD ~1500 kbps avg, 0.22 bit/pixel
Аудио#1 Rus: 48 kHz, MPEG Layer 3, 2 ch, ~128.00 kbps avg
Аудио#2 Eng: 48 kHz, MPEG Layer 3, 2 ch, ~128.00 kbps avg
скриншот  скриншот  скриншот  скриншот  скриншот  

скриншот  скриншот  скриншот  скриншот  скриншот  

Общее
Полное имя : C:American Horror Story\Season 1\American.Horror.Story.s01e01.LostFilm.avi
Формат : AVI
Формат/Информация : Audio Video Interleave
Размер файла : 656 Мбайт
Продолжительность : 51 м. 36 с.
Общий поток : 1778 Кбит/сек
Программа кодирования : VirtualDubMod 1.5.10.2 (build 2540/release)
Библиотека кодирования : VirtualDubMod build 2540/release

Видео
Идентификатор : 0
Формат : MPEG-4 Visual
Профиль формата : Advanced Simple@L5
Настройки формата : BVOP1 / Custom Matrix
Параметр BVOP формата : 1
Параметр QPel формата : Нет
Параметр GMC формата : Без точки перехода
Параметр матрицы формата : Выборочная
Идентификатор кодека : XVID
Идентификатор кодека/Подсказка : XviD
Продолжительность : 51 м. 36 с.
Битрейт : 1441 Кбит/сек
Ширина : 720 пикселей
Высота : 400 пикселей
Соотношение сторон : 16:9
Частота кадров : 23,976 (24000/1001) кадра/сек
Цветовое пространство : YUV
Субдискретизация насыщенности : 4:2:0
Битовая глубина : 8 бит
Тип развёртки : Прогрессивная
Метод сжатия : С потерями
Бит/(Пиксели*Кадры) : 0.209
Размер потока : 532 Мбайт (81%)
Библиотека кодирования : XviD 73

Аудио #1
Идентификатор : 1
Формат : MPEG Audio
Версия формата : Version 1
Профиль формата : Layer 3
Настройки формата : Joint stereo / MS Stereo
Идентификатор кодека : 55
Идентификатор кодека/Подсказка : MP3
Продолжительность : 51 м. 36 с.
Вид битрейта : Постоянный
Битрейт : 128 Кбит/сек
Каналы : 2 канала
Частота : 48,0 КГц
Метод сжатия : С потерями
Размер потока : 47,3 Мбайт (7%)
Выравнивание : Разделение по промежуткам

Аудио #2
Идентификатор : 2
Формат : MPEG Audio
Версия формата : Version 1
Профиль формата : Layer 3
Настройки формата : Joint stereo / MS Stereo
Идентификатор кодека : 55
Идентификатор кодека/Подсказка : MP3
Продолжительность : 51 м. 36 с.
Вид битрейта : Постоянный
Битрейт : 128 Кбит/сек
Каналы : 2 канала
Частота : 48,0 КГц
Метод сжатия : С потерями
Размер потока : 47,3 Мбайт (7%)
Выравнивание : Разделение по промежуткам

piratbit.org



Скачать Американская история ужасов через торрент http://s019.radikal.ru/i603/1301/9b/dc1f6915cca1.jpg Скачать, смотреть онлайн Американская история ужасов бесплантно в хорошем качестве Описание: «Американская история ужасов» — это телевизионная хоррор-антология от именитых американских продюсеров Брэда Фалчака и Райана ... 10 10 2
Торрент: Зарегистрирован [2020-04-21 12:45] · скачан: 89 раз
Статус: √ проверено
Размер: 57.39 GB
Как cкачать? Как скачать Американская история ужасов через торрент | UTorrent



Последний раз редактировалось: bober100 (2020-04-29 16:13), всего редактировалось 2 раз(а)

28-11-2019 20:33  

Отключить всю рекламу на сайте

21-04-2020 16:09 Американская история ужасов Скачать торрент  

720x400? Серьёзно? Это на Nokia 3310 разве что смотреть ...piratbit.org



    Дорогой пользователь! Огромная просьба, поблагодарите релизера, оцените раздачу и оставьте свои комментарий, если Вы скачали Американская история ужасов через торрент бесплатно!
    Комментировать посты могут только пользователи прошедшие не сложную регистрацию
    Показать сообщения:    

    Американская история ужасов через торрент
    Скачать бесплатно Американская история ужасов
    Американская история ужасов скачать торрент
    Американская история ужасов смотреть онлайн
    Cкачать фильм Американская история ужасов бесплатно
    Американская история ужасов скачать торрент в хорошем качестве
    Американская история ужасов смотреть онлайн бесплатно в хорошем качестве


    Вы не можете начинать темы
    Вы не можете отвечать на сообщения
    Вы не можете редактировать свои сообщения
    Вы не можете удалять свои сообщения
    Вы не можете голосовать в опросах
    Вы не можете прикреплять файлы к сообщениям
    Вы можете скачивать файлы