Доктор Стрэндж

Лицензия

Добыча

Дубляж

Дом дракона

1 сезон

Тор

Дубляж

В эфире

Дубляж

Там, где раки поют

MVO

Властелин колец

1 сезон

Ultimate

pack

Рекомендуем

30

Пиратка

ВАЖНО

ВАЖНО

Ghostwire

Пиратка

jed

RePack

nioh2

RePack

RDR2

RePack

NEED FOR SPEED™ PAYBACK

RePack

скачать торрент

Кинопоиск HD

Острые козырьки 6 сезон

6 сезон

FAR CRY 6

RePack

скачать торрент

Лицензия

скачать торрент

MVO

1

1 сезон

скачать торрент

1 сезон

скачать торрент

Лицензия

  

Карьер / The Quarry (Скотт Тимс) [2020, триллер, криминал, детектив, WEB-DLRip-AVC] [MVO] (Mallorn)

Карьер через торрент piratbit.org

Размер: 2.26 GB | Добавлен: 2 года 7 мес. назад | Торрент скачан:196 раз
Смотреть онлайн | Скачать   

22-04-2020 17:22 Карьер Скачать торрент  


Карьер / The Quarry



Страна: США
Жанр: триллер, криминал, детектив
Год выпуска: 2020
Продолжительность: 01:43:03
Перевод: Любительский (многоголосый закадровый) Mallorn
Субтитры: русские, английские

Режиссер: Скотт Тимс / Scott Teems
В ролях: Ши Уигхэм, Майкл Шеннон, Каталина Сандино Морено, Бобби Сото, Бруно Бичир, Альваро Мартинес, Джимми Гонсалес, Абель Бесерра, Энтони Рейнольдс, Роуз Бьянко
Описание: Таинственный мужчина с темным прошлым находит убежище в глубинке Техаса. Он представляется новым пастором и быстро сплачивает вокруг себя прихожан, проникшихся его необычными проповедями. Одновременно его личностью заинтересовывается и начальник местной полиции, имеющий основания для подозрений.
rating
семпл
Качество видео: WEB-DLRip-AVC / WEB-DL 1080p
Формат видео: MKV
Видео: MPEG-4 AVC, 1128x470 (2.40:1), 23.976 fps, ~2177 kbps avg, 0.171 bit/pixel
Аудио 1: 48 kHz, AC3 Dolby Digital, 3/2 (L,C,R,l,r) + LFE ch, ~448 kbps avg Mallorn
Аудио 2: 48 kHz, AC3 Dolby Digital, 3/2 (L,C,R,l,r) + LFE ch, ~448 kbps avg Original

Код:

Complete name               : D:\Раздача\Карьер (2020) WEB-DLRip-AVC__ivanes.mkv
Format                      : Matroska
Format version              : Version 2
File size                   : 2.26 GiB
Duration                    : 1 h 43 min
Overall bit rate            : 3 136 kb/s
Movie name                  : Карьер (2020) WEB-DLRip-AVC__ivanes
Encoded date                : UTC 2020-04-22 15:39:57
Writing application         : mkvmerge v4.4.0 ('Die Wiederkehr') сборка от Jan  3 2011 21:40:45
Writing library             : libebml v1.0.0 + libmatroska v1.0.0
Cover                       : Yes
Attachments                 : cover.jpg

Video
ID                          : 1
Format                      : AVC
Format/Info                 : Advanced Video Codec
Format profile              : High@L4.1
Format settings             : CABAC / 12 Ref Frames
Format settings, CABAC      : Yes
Format settings, Reference  : 12 frames
Codec ID                    : V_MPEG4/ISO/AVC
Duration                    : 1 h 43 min
Bit rate                    : 2 177 kb/s
Width                       : 1 128 pixels
Height                      : 470 pixels
Display aspect ratio        : 2.40:1
Frame rate mode             : Constant
Frame rate                  : 23.976 (24000/1001) FPS
Color space                 : YUV
Chroma subsampling          : 4:2:0
Bit depth                   : 8 bits
Scan type                   : Progressive
Bits/(Pixel*Frame)          : 0.171
Stream size                 : 1.57 GiB (69%)
Title                       : Rip by ivanes
Writing library             : x264 core 160 r3000 33f9e14
Encoding settings           : cabac=1 / ref=12 / deblock=1:-2:-2 / analyse=0x3:0x113 / me=umh / subme=10 / psy=1 / psy_rd=1.00:0.00 / mixed_ref=1 / me_range=32 / chroma_me=1 / trellis=2 / 8x8dct=1 / cqm=0 / deadzone=21,11 / fast_pskip=0 / chroma_qp_offset=-2 / threads=12 / lookahead_threads=3 / sliced_threads=0 / nr=0 / decimate=1 / interlaced=0 / bluray_compat=0 / constrained_intra=0 / bframes=14 / b_pyramid=2 / b_adapt=2 / b_bias=0 / direct=1 / weightb=1 / open_gop=0 / weightp=2 / keyint=240 / keyint_min=23 / scenecut=40 / intra_refresh=0 / rc_lookahead=60 / rc=crf / mbtree=1 / crf=19.4 / qcomp=0.65 / qpmin=0 / qpmax=69 / qpstep=4 / vbv_maxrate=50000 / vbv_bufsize=62500 / crf_max=0.0 / nal_hrd=none / filler=0 / ip_ratio=1.40 / aq=1:1.00
Default                     : Yes
Forced                      : No
Statistics Tags Issue       : mkvmerge v29.0.0 ('Like It Or Not') 64-bit 2020-04-22 15:38:36 / mkvmerge v4.4.0 ('Die Wiederkehr') сборка от Jan  3 2011 21:40:45 2020-04-22 15:39:57
FromStats_BitRate           : 2237314
FromStats_Duration          : 01:43:03.803000000
FromStats_FrameCount        : 148263
FromStats_StreamSize        : 1729388919

Audio #1
ID                          : 2
Format                      : AC-3
Format/Info                 : Audio Coding 3
Commercial name             : Dolby Digital
Codec ID                    : A_AC3
Duration                    : 1 h 43 min
Bit rate mode               : Constant
Bit rate                    : 448 kb/s
Channel(s)                  : 6 channels
Channel layout              : L R C LFE Ls Rs
Sampling rate               : 48.0 kHz
Frame rate                  : 31.250 FPS (1536 SPF)
Compression mode            : Lossy
Stream size                 : 330 MiB (14%)
Title                       : Mallorn
Language                    : Russian
Service kind                : Complete Main
Default                     : Yes
Forced                      : No

Audio #2
ID                          : 3
Format                      : AC-3
Format/Info                 : Audio Coding 3
Commercial name             : Dolby Digital
Codec ID                    : A_AC3
Duration                    : 1 h 43 min
Bit rate mode               : Constant
Bit rate                    : 448 kb/s
Channel(s)                  : 6 channels
Channel layout              : L R C LFE Ls Rs
Sampling rate               : 48.0 kHz
Frame rate                  : 31.250 FPS (1536 SPF)
Compression mode            : Lossy
Stream size                 : 330 MiB (14%)
Title                       : Original
Language                    : English
Service kind                : Complete Main
Default                     : No
Forced                      : No

Text #1
ID                          : 4
Format                      : UTF-8
Codec ID                    : S_TEXT/UTF8
Codec ID/Info               : UTF-8 Plain Text
Title                       : Full
Language                    : Russian
Default                     : No
Forced                      : No

Text #2
ID                          : 5
Format                      : UTF-8
Codec ID                    : S_TEXT/UTF8
Codec ID/Info               : UTF-8 Plain Text
Title                       : Full
Language                    : English
Default                     : No
Forced                      : No

Text #3
ID                          : 6
Format                      : UTF-8
Codec ID                    : S_TEXT/UTF8
Codec ID/Info               : UTF-8 Plain Text
Title                       : SDH
Language                    : English
Default                     : No
Forced                      : No

скриншот  скриншот  скриншот  



Скачать Карьер через торрент https://i111.fastpic.ru/big/2020/0422/9e/6a13b79bbd0c931693d26f80aa543c9e.jpg Скачать, смотреть онлайн Карьер бесплантно в хорошем качестве Описание: Таинственный мужчина с темным прошлым находит убежище в глубинке Техаса. Он представляется новым пастором и быстро сплачивает ... 10 10 5
Торрент: Зарегистрирован [2020-04-22 17:22] · скачан: 196 раз
Статус: T временная
Размер: 2.26 GB
Как cкачать? Как скачать Карьер через торрент | UTorrent

% Раздел Тема Автор DL S | L
T Фильмы 2019-2020 [DVDrip, WEB-DLRip, HDrip] (DUB, MVO) [ 1.46 GB ] Карьер / The Quarry | MVO | BDRip bober100 Скачать
1 | 0
T Фильмы [HD 720p, 1080p] (Хороший звук DUB, MVO) [ 10.16 GB ] Карьер / The Quarry | MVO | 1080p bober100 Скачать
1 | 0
T Фильмы [HD 720p, 1080p] (Хороший звук DUB, MVO) [ 5.4 GB ] Карьер / The Quarry | MVO | 720p bober100 Скачать
1 | 0

28-11-2019 20:33  


Отключить вcю реклaмy на сайте, в т.ч. и в плеере онлайн просмотра!

    Дорогой пользователь! Огромная просьба, поблагодарите релизера, оцените раздачу и оставьте свои комментарий, если Вы скачали Карьер через торрент бесплатно!!
    Комментировать посты могут только пользователи прошедшие не сложную регистрацию
    Показать сообщения:    


    Карьер через торрент
    Скачать бесплатно Карьер
    Карьер скачать торрент
    Карьер смотреть онлайн
    Cкачать фильм Карьер бесплатно
    Карьер скачать торрент в хорошем качестве
    Карьер смотреть онлайн бесплатно в хорошем качестве
    Вы не можете начинать темы
    Вы не можете отвечать на сообщения
    Вы не можете редактировать свои сообщения
    Вы не можете удалять свои сообщения
    Вы не можете голосовать в опросах
    Вы не можете прикреплять файлы к сообщениям
    Вы можете скачивать файлы
    Карьер / The Quarry [2020, триллер, криминал, детектив, WEB-DLRip-AVC] [MVO] смотреть онлайн, скачать торрент picoco.icu