Доктор Стрэндж

Лицензия

Добыча

Дубляж

Дом дракона

1 сезон

Тор

Дубляж

В эфире

Дубляж

Там, где раки поют

MVO

Властелин колец

1 сезон

Ultimate

pack

Рекомендуем

30

Пиратка

ВАЖНО

ВАЖНО

Ghostwire

Пиратка

jed

RePack

nioh2

RePack

RDR2

RePack

NEED FOR SPEED™ PAYBACK

RePack

скачать торрент

Кинопоиск HD

Острые козырьки 6 сезон

6 сезон

FAR CRY 6

RePack

скачать торрент

Лицензия

скачать торрент

MVO

1

1 сезон

скачать торрент

1 сезон

скачать торрент

Лицензия

  

Британский психопат / Отмщение / Avengement (Джесси Джонсон) [2019, Боевик, криминал, BDRip-AVC] MVO [HDRezka] - ExKinoRay

Британский психопат через торрент piratbit.org

Размер: 1.46 GB | Добавлен: 2 года 7 мес. назад | Торрент скачан:700 раз
Смотреть онлайн | Скачать   

22-04-2020 20:40 Британский психопат Скачать торрент  

Название: Британский психопат / Отмщение
Оригинальное название: Avengement
Год выхода: 2019
Жанр: Боевик, криминал
Режиссер: Джесси Джонсон
В ролях: Скотт Эдкинс, Крэйг Фэйрбрасс, Томас Тургус, Ник Моран, Кирстон Вэрэйнг, Лео Грегори, Бо Фаулер, Луис Мэндилор, Теренс Мэйнард, Росс О'Хеннесси

Описание: Главный герой фильма с ранних лет воспитывался улицей криминального неблагополучного района. Он попал под крыло влиятельного человека, который давал ему различные мелкие поручения. Вскоре парня заметил более серьезный человек в криминальном мире, который решил сделать из него наемного убийцу. Годы тренировок убили в главном герои чувство жалости и страха. Он превратился в настоящего киллера, который всегда выполнял заказ. Но однажды очередное дело закончилось для него провалом, в результате чего он оказался за решеткой. В стенах тюрьмы его не раз пытались убить, но он смог сохранить свою жизнь. Выйдя на свободу мужчина желает только одного — найти всех виновных в его неудавшейся жизни и отомстить им...

rating

Страна: Великобритания
Студия: Samuel Goldwyn Films
Продолжительность: 01:26:31
Перевод: Профессиональный многоголосый | HDRezka

Формат: MKV
Качество: BDRip-AVC
Видео: MPEG-4 AVC, 1024x436 (2.35:1), 23.976 fps, 1780 Kbps, 0.166 bit/pixel
Аудио #01: 48 kHz, AC3, 2.0, 192 Kbps | MVO | RUS |
Аудио #02: 48 kHz, AC3, 5.1, 448 Kbps | Оригинал | ENG |
Субтитры: Русские (Full (Наталья Раевская)), английские

За звук спасибо valera76
General
Unique ID : 217203379816561024586943011643519237198 (0xA367D96D1B42E04C80B1D80E09ED7C4E)
Complete name : F:\Avengement.2019.BDRip.AVC.ExKinoRay.mkv
Format : Matroska
Format version : Version 2
File size : 1.46 GiB
Duration : 1 h 26 min
Overall bit rate : 2 422 kb/s
Movie name : Avengement 2019 from ExKinoRay
Encoded date : UTC 2020-04-22 18:59:58
Writing application : mkvmerge v5.6.0 ('Kenya Kane') built on May 27 2012 16:44:04
Writing library : libebml v1.2.3 + libmatroska v1.3.0
Attachments : front.jpg

Video
ID : 1
Format : AVC
Format/Info : Advanced Video Codec
Format profile : High@L4.1
Format settings, CABAC : Yes
Format settings, ReFrames : 12 frames
Codec ID : V_MPEG4/ISO/AVC
Duration : 1 h 26 min
Bit rate : 1 780 kb/s
Width : 1 024 pixels
Height : 436 pixels
Display aspect ratio : 2.35:1
Frame rate mode : Constant
Frame rate : 23.976 (23976/1000) FPS
Color space : YUV
Chroma subsampling : 4:2:0
Bit depth : 8 bits
Scan type : Progressive
Bits/(Pixel*Frame) : 0.166
Stream size : 1.05 GiB (72%)
Title : Enigma
Writing library : x264 core 152 r2851 ba24899
Encoding settings : cabac=1 / ref=12 / deblock=1:-2:-2 / analyse=0x3:0x113 / me=umh / subme=10 / psy=1 / psy_rd=1.06:0.10 / mixed_ref=1 / me_range=32 / chroma_me=1 / trellis=2 / 8x8dct=1 / cqm=0 / deadzone=21,11 / fast_pskip=0 / chroma_qp_offset=-3 / threads=12 / lookahead_threads=3 / sliced_threads=0 / nr=0 / decimate=0 / interlaced=0 / bluray_compat=0 / constrained_intra=0 / bframes=10 / b_pyramid=2 / b_adapt=2 / b_bias=0 / direct=3 / weightb=1 / open_gop=0 / weightp=2 / keyint=240 / keyint_min=23 / scenecut=40 / intra_refresh=0 / rc=2pass / mbtree=0 / bitrate=1780 / ratetol=1.0 / qcomp=0.60 / qpmin=0 / qpmax=51 / qpstep=4 / cplxblur=20.0 / qblur=0.5 / ip_ratio=1.40 / pb_ratio=1.30 / aq=1:1.00
Language : English
Default : Yes
Forced : No
Color range : Limited
Color primaries : BT.709
Transfer characteristics : BT.709
Matrix coefficients : BT.709

Audio #1
ID : 2
Format : AC-3
Format/Info : Audio Coding 3
Mode extension : CM (complete main)
Format settings, Endianness : Big
Codec ID : A_AC3
Duration : 1 h 26 min
Bit rate mode : Constant
Bit rate : 192 kb/s
Channel(s) : 2 channels
Channel positions : Front: L R
Sampling rate : 48.0 kHz
Frame rate : 31.250 FPS (1536 spf)
Compression mode : Lossy
Stream size : 119 MiB (8%)
Title : MVO
Language : Russian
Default : Yes
Forced : No

Audio #2
ID : 3
Format : AC-3
Format/Info : Audio Coding 3
Mode extension : CM (complete main)
Format settings, Endianness : Big
Codec ID : A_AC3
Duration : 1 h 26 min
Bit rate mode : Constant
Bit rate : 448 kb/s
Channel(s) : 6 channels
Channel positions : Front: L C R, Side: L R, LFE
Sampling rate : 48.0 kHz
Frame rate : 31.250 FPS (1536 spf)
Compression mode : Lossy
Stream size : 277 MiB (18%)
Title : Original
Language : English
Default : No
Forced : No

Text #1
ID : 4
Format : UTF-8
Codec ID : S_TEXT/UTF8
Codec ID/Info : UTF-8 Plain Text
Title : Full (Enigma)
Language : Russian
Default : No
Forced : No

Text #2
ID : 5
Format : UTF-8
Codec ID : S_TEXT/UTF8
Codec ID/Info : UTF-8 Plain Text
Title : Full
Language : English
Default : No
Forced : No

Menu
00:00:00.000 : en:Chapter 01
00:03:21.910 : en:Chapter 02
00:12:48.267 : en:Chapter 03
00:22:34.811 : en:Chapter 04
00:33:22.500 : en:Chapter 05
00:42:05.105 : en:Chapter 06
00:49:42.396 : en:Chapter 07
00:56:24.339 : en:Chapter 08
01:03:57.458 : en:Chapter 09
01:11:40.254 : en:Chapter 10
01:15:56.760 : en:Chapter 11
01:22:08.381 : en:Chapter 12



Релиз от: VK релиз-группы

Автор релиза: Enigma



Скачать Британский психопат через торрент https://b.radikal.ru/b42/2004/0b/a5f8b0be1b6f.jpg Скачать, смотреть онлайн Британский психопат бесплантно в хорошем качестве Описание: Главный герой фильма с ранних лет воспитывался улицей криминального неблагополучного района. Он попал под крыло влиятельного ... 8.7 10 13
Info! Золотая раздача, скачанное не засчитывается.
Торрент: Зарегистрирован [2020-04-22 20:40] · скачан: 700 раз
Статус: √ проверено
Размер: 1.46 GB
Как cкачать? Как скачать Британский психопат через торрент | UTorrent

% Раздел Тема Автор DL S | L
T Фильмы [HD 720p, 1080p] (Хороший звук DUB, MVO) [ 4.93 GB ] Британский психопат / Avengement | MVO | 1080p Mr. Grab Скачать
1 | 0

28-11-2019 20:33  


Отключить вcю реклaмy на сайте, в т.ч. и в плеере онлайн просмотра!

23-04-2020 05:20 Британский психопат Скачать торрент  

вот так фильмы надо снимать дёшево и сердито, прям классику напомнило 7\10



23-04-2020 06:01 Британский психопат Скачать торрент  

Эдкинса буду смотреть))



23-04-2020 19:39 Британский психопат Скачать торрент  

Всем советую к просмотру!!! Крутой кинчик с Эдкинсом без ненужных спецэффектов !!!! Зачет!!!!



27-04-2020 17:01 Британский психопат Скачать торрент  

второй раз точно смотреть не буду. а так вполне норм кинцо.(ток не для семейного просмотра)



    Дорогой пользователь! Огромная просьба, поблагодарите релизера, оцените раздачу и оставьте свои комментарий, если Вы скачали Британский психопат через торрент бесплатно!!
    Комментировать посты могут только пользователи прошедшие не сложную регистрацию
    Показать сообщения:    


    Британский психопат через торрент
    Скачать бесплатно Британский психопат
    Британский психопат скачать торрент
    Британский психопат смотреть онлайн
    Cкачать фильм Британский психопат бесплатно
    Британский психопат скачать торрент в хорошем качестве
    Британский психопат смотреть онлайн бесплатно в хорошем качестве
    Вы не можете начинать темы
    Вы не можете отвечать на сообщения
    Вы не можете редактировать свои сообщения
    Вы не можете удалять свои сообщения
    Вы не можете голосовать в опросах
    Вы не можете прикреплять файлы к сообщениям
    Вы можете скачивать файлы
    Британский психопат / Отмщение / Avengement [2019, Боевик, криминал, BDRip-AVC] MVO [HDRezka] - ExKinoRay смотреть онлайн, скачать торрент picoco.icu