1 сезон

3 сезон

iTunes

1

iTunes

DUB Netflix

iTunes

13

1 сезон

RePack

30

Deluxe

pack

Легкие деньги

ВАЖНО

ИГРА 18+

pack

RePack

MK11

RePack

jed

RePack

fifa19

RePack

RDR2

RePack

NEED FOR SPEED™ PAYBACK

4 сезон

9 сезон

Бесстыжие 9 сезон

Все сериалы

все сериалы на PB.wtf

RePack

FAR CRY 5

Anonymous, добрый день, мы не успеваем до 1 числа собрать деньги на оплату серверов, помогите нам пожалуйста в это трудное время. В качестве благодарности мы отключим Вам всю рекламу на сайте (укажите свой ник в строку Ваше имя)!

×
  
Magnet ссылка

Мир! Дружба! Жвачка! / Сезон: 1 / Серии: 1-8 из 8 + Фильм о Фильме (Илья Аксёнов) [2020, Комедия, драма, WEBRip 720p, (Версия 18+)] piratbit.org

Мир! Дружба! Жвачка! через торрент piratbit.org

Раздают: 4 [ 1 KB/s ]
Размер: 9.04 GB | Добавлен: 1 год назад | Торрент скачан:399 раз
Скачать  

23-04-2020 01:31 Мир! Дружба! Жвачка! Скачать торрент  

Мир! Дружба! Жвачка!
Год выпуска: 2020
Страна: Россия
Выпущено: Good Story Media по заказу телеканала ТНТ
Жанр: Комедия, драма
Продолжительность: ~ 00:50:00
Перевод: Не требуется
Субтитры: отсутствуют
Версия 18+.

Режиссер: Илья Аксёнов



В ролях: Юрий Борисов (II), Ксения Каталымова, Степан Девонин, Егор Губарев, Валентина Ляпина, Фёдор Рощин, Ангелина Стречина, Сергей Стёпин, Никита Павленко, Аскар Нигамедзянов

Описание: Сериал о юношеской любви, семейных ценностях, России в преддверии осени 1993-го и возможности выбора, кем стать и по какому пути идти дальше… В центре сюжета – история о простом пареньке Саньке Рябинине. Он верен друзьям, дорожит семьей и обладает обостренным чувством справедливости. Знакомство с соседской девчонкой Женей меняет его жизнь и впутывает в череду опасных событий, в финале которых герой поймет, что ничего не будет прежним ни для него, ни для семьи, ни для всей России…

Качество: WEBRip 720p
Формат: MKV

Видео: MPEG4 AVC Video, H264, 2.40:1, 1280x536, 25 fps, ~2900 kbps, 0.172 bit/pixel
Аудио: 48.0 kHz, AC3 Dolby Digital, 2/0 (L,R) ch, ~ 192 kbps
скриншот  скриншот  скриншот  скриншот  скриншот  

General
Unique ID : 176982817909924989390928904187086612536 (0x8525A69F1EACB5BAA7FDAA74FC23A838)
Complete name : C:\Мир! Дружба! Жвачка! 2020.WEB-DL 720p.Files-x\02. Мир! Дружба! Жвачка! 2020.WEB-DL 720p.Files-x.mkv
Format : Matroska
File size : 940 MiB
Duration : 41mn 35s
Overall bit rate : 3 159 Kbps
Encoded date : UTC 2020-04-22 21:52:16
Writing application : mkvmerge v7.8.0 ('River Man') 32bit built on Apr 3 2015 12:11:22
Writing library : libebml v1.3.1 + libmatroska v1.4.2

Video
ID : 1
Format : AVC
Format/Info : Advanced Video Codec
Format profile : High@L3.1
Format settings, CABAC : Yes
Format settings, ReFrames : 1 frame
Codec ID : V_MPEG4/ISO/AVC
Duration : 41mn 35s
Bit rate mode : Variable
Bit rate : 2 904 Kbps
Maximum bit rate : 3 000 Kbps
Width : 1 280 pixels
Height : 528 pixels
Display aspect ratio : 2.40:1
Frame rate : 25.000 fps
Color space : YUV
Chroma subsampling : 4:2:0
Bit depth : 8 bits
Scan type : Progressive
Bits/(Pixel*Frame) : 0.172
Stream size : 864 MiB (92%)

Audio
ID : 2
Format : AC-3
Format/Info : Audio Coding 3
Mode extension : CM (complete main)
Codec ID : A_AC3
Duration : 41mn 35s
Bit rate mode : Constant
Bit rate : 192 Kbps
Channel(s) : 2 channels
Channel positions : Front: L R
Sampling rate : 44.1 KHz
Bit depth : 16 bits
Compression mode : Lossy
Stream size : 57.1 MiB (6%)

Когда раздача ведётся путём добавления новых серий, при каждом добавлении создётся новый торрент. Чтобы начать докачку новой серии, пользователям необходимо сделать следующее:
(1) остановить скачивание,
(2) удалить старый торрент у себя из клиента (старые серии удалять не надо),
(3) скачать новый торрент и запустить его у себя в клиенте вместо старого, при этом указать клиенту путь в старую папку, куда и должно происходить скачивание новых серий.
Ваш клиент при этом должен произвести хеширование (проверку) старой папки (если не производит сам - помогите ему сделать это), и будет докачивать только те серии, которых у вас ещё нет. Старые серии при этом не удаляются, а продолжают раздаваться!
Eсли вы уже удалили старые серии, то предотвратить повторную закачку старых серий можно, отжав галочку в соответсвующих местах при запуске нового торрента. По возможности, желательно не удалять старые серии как можно дольше, чтобы релизёр не столько продолжал раздавать старые серии, а смог сконцентрироваться на новых.
piratbit.org



Скачать Мир! Дружба! Жвачка! через торрент https://img12.lostpic.net/2020/04/22/aa58be82d2d5d6bd2f3fc6e122614d72.jpg Скачать фильм Мир! Дружба! Жвачка! через торрент бесплантно в хорошем качестве Описание: Сериал о юношеской любви, семейных ценностях, России в преддверии осени 1993-го и возможности выбора, кем стать и по какому пути ... 9.6 10 14
Торрент: Зарегистрирован [2020-05-29 09:34] · скачан: 399 раз
Статус: √ проверено
Размер: 9.04 GB
Как cкачать? Как скачать Мир! Дружба! Жвачка! через торрент | UTorrent

% Раздел Тема Автор DL S | L
TNT serials [ 13.77 GB ] Мир! Дружба! Жвачка! / Сезон: 2 / Серии: 1-8 из 8 + Фильм о фильме [2021 WEBRip 1080p ] bober100 Скачать
15 | 3
Наши сериалы [ 5.3 GB ] Мир! Дружба! Жвачка! / Сезон: 2 / Серии: 1-8 из 8 + Фильм о фильме [2021 WEBRip-AVC ] bober100 Скачать
6 | 2
TNT serials [ 9.36 GB ] Мир! Дружба! Жвачка! / Сезон: 2 / Серии: 1-8 из 8 + Фильм о фильме [2021 WEBRip 720p ] bober100 Скачать
6 | 1
TNT serials [ 5.27 GB ] Мир! Дружба! Жвачка! / Сезон: 2 / Серии: 1-8 из 8 + Фильм о фильме [2021 WEBRip ] bober100 Скачать
60 | 1040
TNT serials [ 13.29 GB ] Мир! Дружба! Жвачка! / Сезон: 1 / Серии: 1-8 из 8 + Фильм о Фильме [2020 WEBRip 1080p ] bober100 Скачать
8 | 0
TNT serials [ 5.12 GB ] Мир! Дружба! Жвачка! / Сезон: 1 / Серии: 1-8 из 8 + Фильм о Фильме [2020 WEBRip-AVC ] bober100 Скачать
7 | 1
TNT serials [ 4.9 GB ] Мир! Дружба! Жвачка! / Сезон: 1 / Серии: 1-8 из 8 + Фильм о Фильме [2020 WEBRip ] bober100 Скачать
3 | 0


Последний раз редактировалось: bober100 (2020-05-29 09:34), всего редактировалось 6 раз(а)

28-11-2019 20:33  

Отключить всю рекламу на сайте

24-04-2020 00:57 Мир! Дружба! Жвачка! Скачать торрент  

Мне понравилось. Атмосферно, лампово так...piratbit.org



    Дорогой пользователь! Огромная просьба, поблагодарите релизера, оцените раздачу и оставьте свои комментарий, если Вы скачали Мир! Дружба! Жвачка! через торрент бесплатно! Внесите свою лепту в развитие PiratBit!
    Комментировать посты могут только пользователи прошедшие не сложную регистрацию
    Показать сообщения:    

    Мир! Дружба! Жвачка! через торрент
    Скачать бесплатно Мир! Дружба! Жвачка!
    Мир! Дружба! Жвачка! скачать торрент
    Мир! Дружба! Жвачка! смотреть онлайн
    Cкачать фильм Мир! Дружба! Жвачка! бесплатно
    Мир! Дружба! Жвачка! скачать торрент в хорошем качестве
    Мир! Дружба! Жвачка! смотреть онлайн бесплатно в хорошем качестве


    Вы не можете начинать темы
    Вы не можете отвечать на сообщения
    Вы не можете редактировать свои сообщения
    Вы не можете удалять свои сообщения
    Вы не можете голосовать в опросах
    Вы не можете прикреплять файлы к сообщениям
    Вы можете скачивать файлы