Ссылка на приватное зеркало нашего сайта всего за 1$. Внимание количество ограничено!!!

2 сезон

iTunes

iTunes

1

iTunes

iTunes

iTunes

WEBRip

iTunes

30
pack

Вам бонус

ВАЖНО

!!Акция!!

Alien_RageХит недели

RePack

Horizon Zero Dawn

ИГРА 18+

pack

RePack

jed

!!Акция!!

Alien_Rage

RePack

fifa19

RePack

Assassins Creed: Odyssey

RePack

NEED FOR SPEED™ PAYBACK

4 сезон

9 сезон

Бесстыжие 9 сезон

Все сериалы

все сериалы на PB.wtf

RePack

FAR CRY 5
  

Тёмный лес / The Woods (Лаки МакКи) [2006, ужасы, триллер, детектив, BDRip-AVC by msltel] MVO, DVO piratbit.org

Тёмный лес через торрент piratbit.org

Размер: 2.13 GB | Добавлен: 5 мес. 4 д. назад | Торрент скачан:22 раза
Скачать  

24-04-2020 08:14 Тёмный лес Скачать торрент  

Название: Тёмный лес
Оригинальное название: The Woods
Год выпуска: 2006
Страна: США, Германия, Великобритания
Жанр: ужасы, триллер, детектив
Продолжительность: 01:31:04
Перевод: профессиональный многоголосый, профессиональный двухголосый
Режиссер: Лаки МакКи
В ролях: Агнес Брукнер, Эмма Кэмпбелл, Брюс Кэмпбелл, Патришия Кларксон, Лоурен Биркелл, Джейн Гилкрист, Катрин Колви, Марсия Беннетт, Рэйчел Николс, Кэтлин Мэкки, Кэри Лоуренс, Коллин Уильямс, Гордон Карри, Джуд Бени, Мэгги Касл, Эмбер Кулл, Джеймс Брэдфорд, Ивана Шеин, Лесли Коттл

О фильме: Приехав в затерянную среди лесов элитную школу-интернат для девочек, юная Хизер с самого начала пришлась не ко двору. Как сверстницы, так и педагоги сразу невзлюбили эту мрачную и странную ученицу. Всеми третируемая, бедная Хизер пребывает на грани отчаяния, её психика дает сбои, и несчастную начинают мучить галлюцинации. Однако, похоже, не все ее видения можно списать на плоды больного воображения. В интернате одна за другой начинают пропадать девушки, и только героиня, благодаря своим жутким грёзам, чувствует, что какая-то злая сила, скрытая в местных чащах, ведёт охоту за жизнями учениц. И если Хизер не разрешит эту сверхъестественную загадку, вскоре придет её черед накормить своей душой затаившуюся в лесу Тьму...



Качество: BDRip-AVC
Формат: MKV
Видео: MPEG-4 AVC, 2253 Кбит/с, 1024x436, 23.976 кадр/c
Аудио 1: русский, AC3, 448 kbps, 6 ch, 48 kHz [закадровый многоголосый, R5]
Аудио 2: русский, AC3, 192 kbps, 2 ch, 48 kHz [закадровый двухголосый, HTB+]
Аудио 3: английский, AC3, 448 kbps, 6 ch, 48 kHz [оригинал]
Субтитры: английские
Главы/чаптеры
Общее
Уникальный идентификатор : 225771041502332420592769476377601982704 (0xA9D9EBC2C16A5D7FA0C8A51297C540F0)
Полное имя : D:\Video\Тёмный лес.2006.BDRip-AVC by msltel.mkv
Формат : Matroska
Версия формата : Version 4
Размер файла : 2,13 Гбайт
Продолжительность : 1 ч. 31 м.
Общий поток : 3 343 Кбит/сек
Название фильма : Rip by msltel
Дата кодирования : UTC 2020-04-24 04:23:49
Программа кодирования : mkvmerge v8.2.0 ('World of Adventure') 64bit
Библиотека кодирования : libebml v1.3.1 + libmatroska v1.4.2

Видео
Идентификатор : 1
Формат : AVC
Формат/Информация : Advanced Video Codec
Профиль формата : High@L4.1
Настройки формата : CABAC / 14 Ref Frames
Параметр CABAC формата : Да
Параметр RefFrames формата : 14 кадров
Идентификатор кодека : V_MPEG4/ISO/AVC
Продолжительность : 1 ч. 31 м.
Битрейт : 2 253 Кбит/сек
Ширина : 1 024 пикселя
Высота : 436 пикселей
Соотношение сторон : 2,35:1
Режим частоты кадров : Постоянный
Частота кадров : 23,976 (24000/1001) кадра/сек
Цветовое пространство : YUV
Субдискретизация насыщенности : 4:2:0
Битовая глубина : 8 бит
Тип развёртки : Прогрессивная
Бит/(Пиксели*Кадры) : 0.210
Размер потока : 1,43 Гбайт (67%)
Библиотека кодирования : x264 core 159 r2991 1771b55
Настройки программы : cabac=1 / ref=14 / deblock=1:-2:-2 / analyse=0x3:0x113 / me=umh / subme=11 / psy=1 / psy_rd=1.00:0.15 / mixed_ref=1 / me_range=32 / chroma_me=1 / trellis=2 / 8x8dct=1 / cqm=0 / deadzone=21,11 / fast_pskip=0 / chroma_qp_offset=-3 / threads=6 / lookahead_threads=1 / sliced_threads=0 / nr=0 / decimate=1 / interlaced=0 / bluray_compat=0 / constrained_intra=0 / bframes=10 / b_pyramid=2 / b_adapt=2 / b_bias=0 / direct=1 / weightb=1 / open_gop=0 / weightp=2 / keyint=230 / keyint_min=23 / scenecut=40 / intra_refresh=0 / rc_lookahead=40 / rc=crf / mbtree=1 / crf=17.5 / qcomp=0.60 / qpmin=0 / qpmax=69 / qpstep=4 / vbv_maxrate=50000 / vbv_bufsize=62500 / crf_max=0.0 / nal_hrd=none / filler=0 / ip_ratio=1.40 / aq=1:1.00
Язык : English
Default : Да
Forced : Нет

Аудио #1
Идентификатор : 2
Формат : AC-3
Формат/Информация : Audio Coding 3
Коммерческое название : Dolby Digital
Идентификатор кодека : A_AC3
Продолжительность : 1 ч. 31 м.
Вид битрейта : Постоянный
Битрейт : 448 Кбит/сек
Каналы : 6 каналов
Channel layout : L R C LFE Ls Rs
Частота : 48,0 КГц
Частота кадров : 31,250 кадров/сек (1536 SPF)
Метод сжатия : С потерями
Размер потока : 292 Мбайт (13%)
Заголовок : MVO R5
Язык : Russian
Service kind : Complete Main
Default : Да
Forced : Нет

Аудио #2
Идентификатор : 3
Формат : AC-3
Формат/Информация : Audio Coding 3
Коммерческое название : Dolby Digital
Идентификатор кодека : A_AC3
Продолжительность : 1 ч. 31 м.
Вид битрейта : Постоянный
Битрейт : 192 Кбит/сек
Каналы : 2 канала
Channel layout : L R
Частота : 48,0 КГц
Частота кадров : 31,250 кадров/сек (1536 SPF)
Метод сжатия : С потерями
Размер потока : 125 Мбайт (6%)
Заголовок : DVO HTB+
Язык : Russian
Service kind : Complete Main
Default : Нет
Forced : Нет

Аудио #3
Идентификатор : 4
Формат : AC-3
Формат/Информация : Audio Coding 3
Коммерческое название : Dolby Digital
Идентификатор кодека : A_AC3
Продолжительность : 1 ч. 31 м.
Вид битрейта : Постоянный
Битрейт : 448 Кбит/сек
Каналы : 6 каналов
Channel layout : L R C LFE Ls Rs
Частота : 48,0 КГц
Частота кадров : 31,250 кадров/сек (1536 SPF)
Метод сжатия : С потерями
Размер потока : 292 Мбайт (13%)
Заголовок : original
Язык : English
Service kind : Complete Main
Default : Нет
Forced : Нет

Текст
Идентификатор : 5
Формат : UTF-8
Идентификатор кодека : S_TEXT/UTF8
Идентификатор кодека/Информация : UTF-8 Plain Text
Продолжительность : 1 ч. 24 м.
Битрейт : 36 бит/сек
Count of elements : 683
Размер потока : 22,4 Кбайт (0%)
Заголовок : английские
Язык : English
Default : Нет
Forced : Нет

Меню
00:00:00.000 : en:Chapter 1
00:00:10.927 : en:Chapter 2
00:11:32.858 : en:Chapter 3
00:23:41.920 : en:Chapter 4
00:35:39.053 : en:Chapter 5
00:46:09.975 : en:Chapter 6
00:55:09.431 : en:Chapter 7
01:04:42.295 : en:Chapter 8
01:16:16.780 : en:Chapter 9
01:31:14.468 : en:Chapter 10
piratbit.org



Скачать Тёмный лес через торрент https://c.radikal.ru/c00/2004/56/ef1120619556.jpg Скачать фильм Тёмный лес через торрент бесплантно в хорошем качестве О фильме: Приехав в затерянную среди лесов элитную школу-интернат для девочек, юная Хизер с самого начала пришлась не ко двору. Как ... 10 10 1
Торрент: Зарегистрирован [2020-04-24 08:14] · скачан: 22 раз
Статус: √ проверено
Размер: 2.13 GB
Как cкачать? Как скачать Тёмный лес через торрент | qTorrent

% Раздел Тема Автор DL S | L
Фильмы [HD 720p, 1080p] (Хороший звук DUB, MVO) [ 3.64 GB ] Тёмный лес / The Woods [2006 BDRip 720p by msltel] MVO DVO msltel Скачать
1 | 0
Фильмы [HD 720p, 1080p] (Хороший звук DUB, MVO) [ 8.05 GB ] Темный лес / The Woods [2006 BDRip 1080p] MVO+DVO bober100 Скачать
1 | 0

28-11-2019 20:33  

Отключить всю рекламу на сайте

    Дорогой пользователь! Огромная просьба, поблагодарите релизера, оцените раздачу и оставьте свои комментарий, если Вы скачали Тёмный лес через торрент бесплатно! Внесите свою лепту в развитие PiratBit!
    Комментировать посты могут только пользователи прошедшие не сложную регистрацию
    Показать сообщения:    

    Тёмный лес через торрент
    Скачать бесплатно Тёмный лес
    Тёмный лес скачать торрент
    Тёмный лес смотреть онлайн
    Cкачать фильм Тёмный лес бесплатно
    Тёмный лес скачать торрент в хорошем качестве
    Тёмный лес смотреть онлайн бесплатно в хорошем качестве


    Вы не можете начинать темы
    Вы не можете отвечать на сообщения
    Вы не можете редактировать свои сообщения
    Вы не можете удалять свои сообщения
    Вы не можете голосовать в опросах
    Вы не можете прикреплять файлы к сообщениям
    Вы можете скачивать файлы