Доктор Стрэндж

Лицензия

Добыча

Дубляж

Дом дракона

1 сезон

Тор

Дубляж

В эфире

Дубляж

Там, где раки поют

MVO

Властелин колец

1 сезон

Ultimate

pack

Рекомендуем

30

Пиратка

ВАЖНО

ВАЖНО

Ghostwire

Пиратка

jed

RePack

nioh2

RePack

RDR2

RePack

NEED FOR SPEED™ PAYBACK

RePack

скачать торрент

Кинопоиск HD

Острые козырьки 6 сезон

6 сезон

FAR CRY 6

RePack

скачать торрент

Лицензия

скачать торрент

MVO

1

1 сезон

скачать торрент

1 сезон

скачать торрент

Лицензия

  

Подлинная история банды Келли / True History of the Kelly Gang (Джастин Курзель) [2019, драма, криминал, вестерн, биография, WEB-DLRip-AVC] Дубляж [iTunes]

Подлинная история банды Келли через торрент piratbit.org

Размер: 2.17 GB | Добавлен: 2 года 7 мес. назад | Торрент скачан:377 раз
Смотреть онлайн | Скачать   

25-04-2020 03:16 Подлинная история банды Келли Скачать торрент  

Подлинная история банды Келли | True History of the Kelly Gang
Год выпуска: 2019
Страна: Австралия, Великобритания, Франция
Студия: Porchlight Films, Daybreak Pictures, Film Victoria
Жанр: драма, криминал, вестерн, биография
Продолжительность: 02:05:08
Перевод: Дублированный | iTunes
Субтитры: Русские (Full), английские (Full, SDH)

Режиссер: Джастин Курзель

rating

В ролях: Джордж Маккэй, Рассел Кроу, Николас Холт, Эсси Дэвис, Джейкоб Коллинс-Леви, Шон Кинэн, Томасин МакКензи, Чарли Ханнэм, Клаудия Карван, Марлон Уильямс

Описание: 1860-е, Австралия. Семья подростка Неда нищенствует, и мать не брезгует проституцией, чтобы прокормить детей. Когда отец умирает в тюрьме, куда он попал за украденную Недом коровью ногу, мальчик преисполняется чувством вины. Через некоторое время парень отправляется с новым знакомым матери Гарри Пауэром перегонять скот, но вскоре выясняет, что мать продала его бандиту, и Нед должен помогать Гарри одурачивать путников, чтобы их грабить и убивать. Так начинается путь во взрослую жизнь впоследствии известного разбойника Неда Келли.

Качество: WEB-DLRip-AVC
Формат: MKV

Видео: 1024x572 (16:9), 24 fps, MPEG-4 AVC ~ 2106 Кbps avg, 0.150 bit/pixel
Аудио: 48 kHz, AC3 Dolby Digital, 3/2 (L,C,R,l,r) + LFE ch, ~384 kbps
скриншот  скриншот  скриншот  скриншот  

Общее
Уникальный идентификатор : 31726327996655310352104710289513287150 (0x17DE44BD2A1B9C68CFD53E8F29048DEE)
Полное имя : True.History.of.the.Kelly.Gang.2019.iT.WEB-DLRip.2.18Gb.x264.mkv
Формат : Matroska
Версия формата : Version 4
Размер файла : 2,17 Гбайт
Продолжительность : 2 ч. 5 м.
Общий поток : 2477 Кбит/сек
Название фильма : Подлинная история банды Келли / True History of the Kelly Gang (2019)
Дата кодирования : UTC 2020-04-25 00:41:10
Программа кодирования : mkvmerge v41.0.0 ('Smarra') 64-bit
Библиотека кодирования : libebml v1.3.9 + libmatroska v1.5.2
Обложка : Yes
Attachments : cover.jpg

Видео
Идентификатор : 1
Формат : AVC
Формат/Информация : Advanced Video Codec
Профиль формата : High@L4.1
Настройки формата : CABAC / 10 Ref Frames
Параметр CABAC формата : Да
Параметр RefFrames формата : 10 кадров
Идентификатор кодека : V_MPEG4/ISO/AVC
Продолжительность : 2 ч. 5 м.
Битрейт : 2106 Кбит/сек
Ширина : 1024 пикселя
Высота : 572 пикселя
Соотношение сторон : 16:9
Режим частоты кадров : Постоянный
Частота кадров : 24,000 кадра/сек
Цветовое пространство : YUV
Субдискретизация насыщенности : 4:2:0
Битовая глубина : 8 бит
Тип развёртки : Прогрессивная
Бит/(Пиксели*Кадры) : 0.150
Размер потока : 1,83 Гбайт (84%)
Заголовок : #stillet
Библиотека кодирования : x264 core 152 r2851bm ba24899
Настройки программы : cabac=1 / ref=10 / deblock=1:-3:-3 / analyse=0x3:0x113 / me=umh / subme=11 / psy=1 / psy_rd=1.00:0.15 / mixed_ref=1 / me_range=32 / chroma_me=1 / trellis=2 / 8x8dct=1 / cqm=0 / deadzone=21,11 / fast_pskip=0 / chroma_qp_offset=-3 / threads=8 / lookahead_threads=3 / sliced_threads=0 / nr=0 / decimate=0 / interlaced=0 / bluray_compat=0 / constrained_intra=0 / bframes=9 / b_pyramid=2 / b_adapt=2 / b_bias=0 / direct=3 / weightb=1 / open_gop=0 / weightp=2 / keyint=240 / keyint_min=24 / scenecut=40 / intra_refresh=0 / rc=2pass / mbtree=0 / bitrate=2106 / ratetol=1.0 / qcomp=0.60 / qpmin=0 / qpmax=69 / qpstep=4 / cplxblur=20.0 / qblur=0.5 / ip_ratio=1.40 / pb_ratio=1.30 / aq=1:1.00
Язык : English
Default : Да
Forced : Нет

Аудио
Идентификатор : 2
Формат : AC-3
Формат/Информация : Audio Coding 3
Коммерческое название : Dolby Digital
Идентификатор кодека : A_AC3
Продолжительность : 2 ч. 5 м.
Вид битрейта : Постоянный
Битрейт : 384 Кбит/сек
Каналы : 6 каналов
ChannelLayout : L R C LFE Ls Rs
Частота : 48,0 КГц
Частота кадров : 31,250 кадров/сек (1536 SPF)
Метод сжатия : С потерями
Размер потока : 344 Мбайт (16%)
Заголовок : Дубляж | iTunes
Язык : Russian
Default : Да
Forced : Нет

Текст #1
Идентификатор : 3
Формат : UTF-8
Идентификатор кодека : S_TEXT/UTF8
Идентификатор кодека/Информация : UTF-8 Plain Text
Продолжительность : 1 ч. 58 м.
Битрейт : 87 бит/сек
ElementCount : 1400
Размер потока : 76,5 Кбайт (0%)
Заголовок : Full
Язык : Russian
Default : Нет
Forced : Нет

Текст #2
Идентификатор : 4
Формат : UTF-8
Идентификатор кодека : S_TEXT/UTF8
Идентификатор кодека/Информация : UTF-8 Plain Text
Продолжительность : 1 ч. 58 м.
Битрейт : 52 бит/сек
ElementCount : 1576
Размер потока : 45,6 Кбайт (0%)
Заголовок : Full
Язык : English
Default : Нет
Forced : Нет

Текст #3
Идентификатор : 5
Формат : UTF-8
Идентификатор кодека : S_TEXT/UTF8
Идентификатор кодека/Информация : UTF-8 Plain Text
Продолжительность : 2 ч. 3 м.
Битрейт : 53 бит/сек
ElementCount : 1774
Размер потока : 48,3 Кбайт (0%)
Заголовок : SDH
Язык : English
Default : Нет
Forced : Нет




Скачать Подлинная история банды Келли через торрент https://d.radikal.ru/d39/2004/14/232f3784a002.png Скачать, смотреть онлайн Подлинная история банды Келли бесплантно в хорошем качестве Описание: 1860-е, Австралия. Семья подростка Неда нищенствует, и мать не брезгует проституцией, чтобы прокормить детей. Когда отец умирает ... 9.9 10 8
Торрент: Зарегистрирован [2020-04-25 03:16] · скачан: 377 раз
Статус: √ проверено
Размер: 2.17 GB
Как cкачать? Как скачать Подлинная история банды Келли через торрент | UTorrent

% Раздел Тема Автор DL S | L
Фильмы 2019-2020 [DVDrip, WEB-DLRip, HDrip] (DUB, MVO) [ 747 MB ] Подлинная история банды Келли / True History of the Kelly Gang | iTunes | HDRip bober100 Скачать
1 | 0
Фильмы 2019-2020 [DVDrip, WEB-DLRip, HDrip] (DUB, MVO) [ 745 MB ] Подлинная история банды Келли / True History of the Kelly Gang | iTunes | BDRip-AVC Lithuania Скачать
1 | 0
Фильмы [HD 720p, 1080p] (Хороший звук DUB, MVO) [ 7.35 GB ] Подлинная история банды Келли / True History of the Kelly Gang | iTunes | 720p bober100 Скачать
1 | 0
Фильмы [HD 720p, 1080p] (Хороший звук DUB, MVO) [ 14.28 GB ] Подлинная история банды Келли / True History of the Kelly Gang | iTunes | 1080p bober100 Скачать
1 | 0
Фильмы (Blu-ray, BD-Remux, HDDVD) [ 31.05 GB ] Подлинная история банды Келли / True History of the Kelly Gang | iTunes | BD Remux 1080p bober100 Скачать
1 | 0
Фильмы (WEB-DL 720p, 1080p) [ 4.39 GB ] Подлинная история банды Келли / True History of the Kelly Gang | iTunes | 720p bober100 Скачать
1 | 0
Ultra HD (UHD: 2K, 4K, 8K) [ 10.23 GB ] Подлинная история банды Келли / True History of the Kelly Gang | iTunes | 2160p bober100 Скачать
1 | 0

28-11-2019 20:33  


Отключить вcю реклaмy на сайте, в т.ч. и в плеере онлайн просмотра!

26-04-2020 11:52 Подлинная история банды Келли Скачать торрент  

Фильм мне не понравился, реклама однополых отношений, проституции и гоп стопа...



    Дорогой пользователь! Огромная просьба, поблагодарите релизера, оцените раздачу и оставьте свои комментарий, если Вы скачали Подлинная история банды Келли через торрент бесплатно!!
    Комментировать посты могут только пользователи прошедшие не сложную регистрацию
    Показать сообщения:    


    Подлинная история банды Келли через торрент
    Скачать бесплатно Подлинная история банды Келли
    Подлинная история банды Келли скачать торрент
    Подлинная история банды Келли смотреть онлайн
    Cкачать фильм Подлинная история банды Келли бесплатно
    Подлинная история банды Келли скачать торрент в хорошем качестве
    Подлинная история банды Келли смотреть онлайн бесплатно в хорошем качестве
    Вы не можете начинать темы
    Вы не можете отвечать на сообщения
    Вы не можете редактировать свои сообщения
    Вы не можете удалять свои сообщения
    Вы не можете голосовать в опросах
    Вы не можете прикреплять файлы к сообщениям
    Вы можете скачивать файлы
    Подлинная история банды Келли / True History of the Kelly Gang [2019, драма, криминал, вестерн, биография, WEB-DLRip-AVC] Дубляж [iTunes] смотреть онлайн, скачать торрент picoco.icu