Доктор Стрэндж

Лицензия

Добыча

Дубляж

Дом дракона

1 сезон

Тор

Дубляж

В эфире

Дубляж

Там, где раки поют

MVO

Властелин колец

1 сезон

Deluxe

pack

Рекомендуем

30

Пиратка

ВАЖНО

ВАЖНО

Ghostwire

Пиратка

jed

RePack

nioh2

RePack

RDR2

RePack

NEED FOR SPEED™ PAYBACK

RePack

скачать торрент

Кинопоиск HD

Острые козырьки 6 сезон

6 сезон

FAR CRY 6

RePack

скачать торрент

Лицензия

скачать торрент

MVO

1

1 сезон

скачать торрент

1 сезон

скачать торрент

Лицензия

  

Тайлер Рейк: Операция по спасению / Эвакуация / Extraction (Сэм Харгрейв) [2020, боевик, WEB-DLRip-AVC] Дубляж

Тайлер Рейк: Операция по спасению через торрент piratbit.org

Раздают: 2 [ 0 KB/s ]
Размер: 741 MB | Добавлен: 2 года 7 мес. назад | Торрент скачан:851 раз
Смотреть онлайн | Скачать   

25-04-2020 09:58 Тайлер Рейк: Операция по спасению Скачать торрент  

Тайлер Рейк: Операция по спасению / Эвакуация
Extraction

Страна: США
Жанр: боевик
Год выпуска: 2020
Продолжительность: 01:57:26

Перевод: Профессиональный (полное дублирование) [Пифагор | Netflix]
Субтитры: русские (форсированные, полные)
Оригинальная аудиодорожка: нет

Режиссер: Сэм Харгрейв / Sam Hargrave

В ролях: Крис Хемсворт, Голшифте Фарахани, Дэвид Харбор, Рудракш Джайсвал, Рандип Худа, Панкадж Трипати, Крис Джай Алекс, Прияншу Пайнюли, Шатаф Фигар, Патрик Ньюэлл

Описание: Наёмнику Тайлеру Рэйку поручают освободить сына международного преступника. Мальчик - пешка в войне двух наркобаронов, и его держат в заложниках в городе Дакка, столице государства Бангладеш и одном из самых неприступных мест в мире.



Релиз:

Автор рипа: stalkerok

Сэмпл

Качество видео: WEB-DLRip-AVC | Исходник: Extraction.2020.1080p.NF.WEB-DL.DDP5.1.Atmos.x264-EniaHD
Формат видео: MKV
Видео кодек: AVC
Аудио кодек: AAC
Видео: AVC, 820 Кбит/сек, 790x330 (2.40:1), 24 кадр/сек
Аудио: AAC, 64 Кбит/сек, 48 КГц, 2.0 - русский
---[Information] [25.04.2020 12:40:51] x264 [info]: frame I:1207 Avg QP:15.45 size: 30407
---[Information] [25.04.2020 12:40:51] x264 [info]: frame P:43071 Avg QP:20.98 size: 8607
---[Information] [25.04.2020 12:40:51] x264 [info]: frame B:124841 Avg QP:22.29 size: 2499

General
Unique ID : 148184259755767894479091061290345111400 (0x6F7B4014A5A50DDA2E867EECD5AB1F68)
Complete name : C:\temp\Extraction.2020\Extraction.2020.WEB-DLRip.x264.745Mb.Rus.stalkerok.New-Team.mkv
Format : Matroska
Format version : Version 4
File size : 741 MiB
Duration : 1 h 57 min
Overall bit rate : 882 kb/s
Movie name : Extraction (2020) | Rip by stalkerok
Encoded date : UTC 2020-04-25 09:43:33
Writing application : mkvmerge v44.0.0 ('Domino') 64-bit
Writing library : libebml v1.3.10 + libmatroska v1.5.2

Video
ID : 1
Format : AVC
Format/Info : Advanced Video Codec
Format profile : High@L4.1
Format settings : CABAC / 12 Ref Frames
Format settings, CABAC : Yes
Format settings, Reference frames : 12 frames
Codec ID : V_MPEG4/ISO/AVC
Duration : 1 h 57 min
Bit rate : 820 kb/s
Width : 790 pixels
Height : 330 pixels
Display aspect ratio : 2.40:1
Frame rate mode : Constant
Frame rate : 24.000 FPS
Color space : YUV
Chroma subsampling : 4:2:0
Bit depth : 8 bits
Scan type : Progressive
Bits/(Pixel*Frame) : 0.131
Stream size : 686 MiB (93%)
Title : Extraction (2020) | Rip by stalkerok
Writing library : x264 core 160 r3000 33f9e14
Encoding settings : cabac=1 / ref=12 / deblock=1:-2:-1 / analyse=0x3:0x133 / me=umh / subme=11 / psy=1 / psy_rd=1.00:0.00 / mixed_ref=1 / me_range=32 / chroma_me=1 / trellis=2 / 8x8dct=1 / cqm=0 / deadzone=21,11 / fast_pskip=0 / chroma_qp_offset=-2 / threads=10 / lookahead_threads=2 / sliced_threads=0 / nr=0 / decimate=0 / interlaced=0 / bluray_compat=0 / constrained_intra=0 / bframes=16 / b_pyramid=2 / b_adapt=2 / b_bias=0 / direct=3 / weightb=1 / open_gop=0 / weightp=2 / keyint=240 / keyint_min=23 / scenecut=40 / intra_refresh=0 / rc_lookahead=60 / rc=2pass / mbtree=0 / bitrate=820 / ratetol=1.0 / qcomp=0.65 / qpmin=0 / qpmax=69 / qpstep=4 / cplxblur=20.0 / qblur=0.5 / vbv_maxrate=50000 / vbv_bufsize=62500 / nal_hrd=none / filler=0 / ip_ratio=1.40 / pb_ratio=1.30 / aq=3:0.95
Default : Yes
Forced : No

Audio
ID : 2
Format : AAC LC SBR
Format/Info : Advanced Audio Codec Low Complexity with Spectral Band Replication
Commercial name : HE-AAC
Format settings : Explicit
Codec ID : A_AAC-2
Duration : 1 h 57 min
Bit rate : 64.0 kb/s
Channel(s) : 2 channels
Channel layout : L R
Sampling rate : 48.0 kHz
Frame rate : 23.438 FPS (2048 SPF)
Compression mode : Lossy
Delay relative to video : 31 ms
Stream size : 53.8 MiB (7%)
Language : Russian
Default : Yes
Forced : No

Text #1
ID : 3
Format : UTF-8
Codec ID : S_TEXT/UTF8
Codec ID/Info : UTF-8 Plain Text
Duration : 1 h 55 min
Bit rate : 7 b/s
Count of elements : 178
Stream size : 6.54 KiB (0%)
Title : Forced
Language : Russian
Default : Yes
Forced : No

Text #2
ID : 4
Format : UTF-8
Codec ID : S_TEXT/UTF8
Codec ID/Info : UTF-8 Plain Text
Duration : 1 h 55 min
Bit rate : 31 b/s
Count of elements : 675
Stream size : 26.3 KiB (0%)
Language : Russian
Default : No
Forced : No



Скачать Тайлер Рейк: Операция по спасению через торрент http://i6-imageban-ru.translate.goog/out/2017/09/18/2ff75c0c358795c5946784cc1680714d.png Скачать, смотреть онлайн Тайлер Рейк: Операция по спасению бесплантно в хорошем качестве Описание: Наёмнику Тайлеру Рэйку поручают освободить сына международного преступника. Мальчик - пешка в войне двух наркобаронов, и его ... 9.8 10 18
Info! Золотая раздача, скачанное не засчитывается.
Торрент: Зарегистрирован [2020-04-25 09:58] · скачан: 851 раз
Статус: √ проверено
Размер: 741 MB
Как cкачать? Как скачать Тайлер Рейк: Операция по спасению через торрент | UTorrent

% Раздел Тема Автор DL S | L
Фильмы 2019-2020 [DVDrip, WEB-DLRip, HDrip] (DUB, MVO) [ 2.18 GB ] Тайлер Рейк: Операция по спасению / Эвакуация / Extraction | Пифагор | DLRip Twi7ter Скачать
6 | 0
Фильмы 2019-2020 [DVDrip, WEB-DLRip, HDrip] (DUB, MVO) [ 1.47 GB ] Тайлер Рейк: Операция по спасению / Эвакуация / Extraction | Пифагор | DLRip Twi7ter Скачать
11 | 1

28-11-2019 20:33  


Отключить вcю реклaмy на сайте, в т.ч. и в плеере онлайн просмотра!

25-04-2020 16:08 Тайлер Рейк: Операция по спасению Скачать торрент  

фильм нормуль, ребята! все складно-ладно, крепкий боевик с Тором))



26-04-2020 04:16 Тайлер Рейк: Операция по спасению Скачать торрент  

Я бы сказал это лучший Боевик этого года. Без всяких реклам -БАХ! Не затянуто,не тупо, динамика огонь.



26-04-2020 10:57 Тайлер Рейк: Операция по спасению Скачать торрент  

aaaxeee писал(а):

Я бы сказал это лучший Боевик этого года. Без всяких реклам -БАХ! Не затянуто,не тупо, динамика огонь.

плюсую



29-04-2020 16:37 Тайлер Рейк: Операция по спасению Скачать торрент  

Фильм на любителя. Мне не зашел -



30-04-2020 05:34 Тайлер Рейк: Операция по спасению Скачать торрент  

каког х.я Тайлер Рейк этож Эвакуация



    Дорогой пользователь! Огромная просьба, поблагодарите релизера, оцените раздачу и оставьте свои комментарий, если Вы скачали Тайлер Рейк: Операция по спасению через торрент бесплатно!!
    Комментировать посты могут только пользователи прошедшие не сложную регистрацию
    Показать сообщения:    


    Тайлер Рейк: Операция по спасению через торрент
    Скачать бесплатно Тайлер Рейк: Операция по спасению
    Тайлер Рейк: Операция по спасению скачать торрент
    Тайлер Рейк: Операция по спасению смотреть онлайн
    Cкачать фильм Тайлер Рейк: Операция по спасению бесплатно
    Тайлер Рейк: Операция по спасению скачать торрент в хорошем качестве
    Тайлер Рейк: Операция по спасению смотреть онлайн бесплатно в хорошем качестве
    Вы не можете начинать темы
    Вы не можете отвечать на сообщения
    Вы не можете редактировать свои сообщения
    Вы не можете удалять свои сообщения
    Вы не можете голосовать в опросах
    Вы не можете прикреплять файлы к сообщениям
    Вы можете скачивать файлы
    Тайлер Рейк: Операция по спасению / Эвакуация / Extraction [2020, боевик, WEB-DLRip-AVC] Дубляж смотреть онлайн, скачать торрент picoco.icu