Ссылка на приватное зеркало всего за 1$. Внимание количество ограничено!!!

iTunes

iTunes

iTunes

1

iTunes

iTunes

iTunes

iTunes

iTunes

30
pack

$ от Little Big

ВАЖНО

!!Акция!!

Alien_RageХит недели

RePack

Resident Evil 21

ИГРА 18+

pack

RePack

jed

!!Акция!!

Alien_Rage

RePack

fifa19

RePack

Assassins Creed: Odyssey

RePack

NEED FOR SPEED™ PAYBACK

4 сезон

9 сезон

Бесстыжие 9 сезон

Все сериалы

все сериалы на PB.wtf

RePack

FAR CRY 5
  

Пушки Акимбо / Guns Akimbo (Джейсон Ли Хауден) [2019, боевик, комедия, BDRip 720p] DVO [Кубик в Кубе] piratbit.org

Пушки Акимбо через торрент piratbit.org

Раздают: 1 [ 0 KB/s ]
Размер: 5.1 GB | Добавлен: 2 мес. 17 д. назад | Торрент скачан:89 раз
Скачать  

25-04-2020 19:54 Пушки Акимбо Скачать торрент  

Пушки Акимбо | Guns Akimbo
Год выпуска: 2019
Страна: Великобритания, Германия, Новая Зеландия
Студия: Altitude Film Entertainment, Electric Shadow Company, The, Four Knights Film
Жанр: боевик, комедия
Продолжительность: 01:37:48
Перевод: Профессиональный (двухголосый) | Кубик в Кубе по заказу КиноПоиск
Субтитры: Русские (Forced, full), английские (Full, SDH)

Режиссер: Джейсон Ли Хауден

rating


В ролях: Дэниэл Рэдклифф, Самара Уивинг, Риз Дэрби, Нед Деннехи, Наташа Лю Бордиццо, Марк Роули, Грант Боулер, Ханако Футман, Джош Роберт Томпсон, Сет Сьостранд

Описание: Майлз был обычным разработчиком видеоигр, пока его не втянули в кровавый квест. Незнакомцы вломились в дом, прибили к рукам два пистолета и похитили любимую девушку. Теперь Майлзу придётся сразиться с Никс - безжалостной чемпионкой подпольных игр на выживание.

Качество: BDRip 720p
Формат: MKV

Видео: 1280x536 at 23.976 fps, x264, ~6800 kbps avg
Аудио#1 Russian: 48 kHz, AC3, 2/0 (L,R) ch, ~192 kbps avg |Двухголосый закадровый, Кубик в Кубе по заказу КиноПоиск|
Аудио#2 English: 48 kHz, AC3, 3/2 (L,C,R,l,r) + LFE ch, ~448 kbps avg
скриншот  скриншот  скриншот  скриншот  скриншот  

General
Unique ID : 254677408985433144683288510436837034790 (0xBF9915B643F48B0484B8F84180760B26)
Complete name : Guns.Akimbo.2019.720p.BluRay.DD5.1.x264-iFT.mkv
Format : Matroska
Format version : Version 2
File size : 5.10 GiB
Duration : 1 h 37 min
Overall bit rate : 7 462 kb/s
Movie name : Пушки Акимбо / Guns Akimbo (2019)
Encoded date : UTC 2020-04-25 19:12:40
Writing application : mkvmerge v5.8.0 ('No Sleep / Pillow') built on Sep 2 2012 15:37:04
Writing library : libebml v1.2.3 + libmatroska v1.3.0

Video
ID : 1
Format : AVC
Format/Info : Advanced Video Codec
Format profile : High@L4.1
Format settings : CABAC / 12 Ref Frames
Format settings, CABAC : Yes
Format settings, Reference fra : 12 frames
Codec ID : V_MPEG4/ISO/AVC
Duration : 1 h 37 min
Bit rate : 6 674 kb/s
Width : 1 280 pixels
Height : 536 pixels
Display aspect ratio : 2.40:1
Frame rate mode : Constant
Frame rate : 23.976 (24000/1001) FPS
Color space : YUV
Chroma subsampling : 4:2:0
Bit depth : 8 bits
Scan type : Progressive
Bits/(Pixel*Frame) : 0.406
Stream size : 4.56 GiB (89%)
Writing library : x264 core 160 r3000+55 ~ Encoded by Mocunaman in Portugal
Encoding settings : cabac=1 / ref=12 / deblock=1:-3:-3 / analyse=0x3:0x113 / me=umh / subme=11 / psy=1 / fade_compensate=0.00 / psy_rd=1.00:0.00 / mixed_ref=1 / me_range=48 / chroma_me=1 / trellis=2 / 8x8dct=1 / cqm=0 / deadzone=21,11 / fast_pskip=0 / chroma_qp_offset=-2 / threads=17 / lookahead_threads=4 / sliced_threads=0 / nr=0 / decimate=0 / interlaced=0 / bluray_compat=0 / constrained_intra=0 / fgo=0 / bframes=10 / b_pyramid=2 / b_adapt=2 / b_bias=0 / direct=3 / weightb=1 / open_gop=0 / weightp=2 / keyint=250 / keyint_min=23 / scenecut=40 / intra_refresh=0 / rc_lookahead=60 / rc=crf / mbtree=0 / crf=15.4000 / qcomp=0.65 / qpmin=0:0:0 / qpmax=69:69:69 / qpstep=4 / vbv_maxrate=62500 / vbv_bufsize=78125 / crf_max=0.0 / nal_hrd=none / filler=0 / ip_ratio=1.30 / pb_ratio=1.20 / aq=3:0.80 / aq-sensitivity=10.00 / aq-factor=1.00:1.00:1.00 / aq2=0 / aq3=0 / zones=0,105,crf=11.4/411,503,crf=11.4/1439,1882,crf=11.4/2799,5347,crf=13.9/5971,6070,crf=11.4/22877,24804,crf=14.4/85122,87191,crf=14.4
Default : Yes
Forced : No
Color range : Limited
Color primaries : BT.709
Transfer characteristics : BT.709
Matrix coefficients : BT.709

Audio #1
ID : 2
Format : AC-3
Format/Info : Audio Coding 3
Commercial name : Dolby Digital
Codec ID : A_AC3
Duration : 1 h 37 min
Bit rate mode : Constant
Bit rate : 192 kb/s
Channel(s) : 2 channels
Channel layout : L R
Sampling rate : 48.0 kHz
Frame rate : 31.250 FPS (1536 SPF)
Bit depth : 16 bits
Compression mode : Lossy
Stream size : 134 MiB (3%)
Title : Кубик в Кубе
Language : Russian
Service kind : Complete Main
Default : Yes
Forced : No

Audio #2
ID : 3
Format : AC-3
Format/Info : Audio Coding 3
Commercial name : Dolby Digital
Codec ID : A_AC3
Duration : 1 h 37 min
Bit rate mode : Constant
Bit rate : 448 kb/s
Channel(s) : 6 channels
Channel layout : L R C LFE Ls Rs
Sampling rate : 48.0 kHz
Frame rate : 31.250 FPS (1536 SPF)
Bit depth : 16 bits
Compression mode : Lossy
Stream size : 313 MiB (6%)
Language : English
Service kind : Complete Main
Default : No
Forced : No

Text #1
ID : 4
Format : UTF-8
Codec ID : S_TEXT/UTF8
Codec ID/Info : UTF-8 Plain Text
Title : Forced
Language : Russian
Default : Yes
Forced : No

Text #2
ID : 5
Format : UTF-8
Codec ID : S_TEXT/UTF8
Codec ID/Info : UTF-8 Plain Text
Title : Full
Language : Russian
Default : No
Forced : No

Text #3
ID : 6
Format : UTF-8
Codec ID : S_TEXT/UTF8
Codec ID/Info : UTF-8 Plain Text
Title : Full
Language : English
Default : No
Forced : No

Text #4
ID : 7
Format : UTF-8
Codec ID : S_TEXT/UTF8
Codec ID/Info : UTF-8 Plain Text
Title : SDH
Language : English
Default : No
Forced : No

Menu
00:00:00.000 : en:Chapter 01
00:04:14.588 : en:Chapter 02
00:12:10.438 : en:Chapter 03
00:18:55.384 : en:Chapter 04
00:23:15.686 : en:Chapter 05
00:30:08.598 : en:Chapter 06
00:34:46.418 : en:Chapter 07
00:42:15.491 : en:Chapter 08
00:47:14.123 : en:Chapter 09
00:52:14.673 : en:Chapter 10
00:55:57.145 : en:Chapter 11
00:58:56.783 : en:Chapter 12
01:04:05.508 : en:Chapter 13
01:10:56.752 : en:Chapter 14
01:17:35.192 : en:Chapter 15
01:29:03.129 : en:Chapter 16

piratbit.org



Скачать Пушки Акимбо через торрент https://i1.imageban.ru/out/2020/04/25/0a581b24c6b0f227365e69a666b4b66f.jpg Скачать фильм Пушки Акимбо через торрент бесплантно в хорошем качестве Описание: Майлз был обычным разработчиком видеоигр, пока его не втянули в кровавый квест. Незнакомцы вломились в дом, прибили к рукам два ... 10 10 4
Торрент: Зарегистрирован [2020-04-25 19:54] · скачан: 89 раз
Статус: √ проверено
Размер: 5.1 GB
Как cкачать? Как скачать Пушки Акимбо через торрент | qTorrent

% Раздел Тема Автор DL S | L
Фильмы [HD 720p, 1080p] (Хороший звук DUB, MVO) [ 9.52 GB ] Пушки Акимбо / Guns Akimbo [2019 BDRip 1080p] +MVO [HDRezka Studio] bober100 Скачать
4 | 0
Фильмы 2019-2020 (Звук TS, Cam, VO, DVO) [ 2.17 GB ] Пушки Акимбо / Guns Akimbo [2019 HDRip-AVC] DVO [Кубик в Кубе] bober100 Скачать
6 | 0
Фильмы (WEB-DL 720p, 1080p) [ 6.96 GB ] Пушки Акимбо / Guns Akimbo [2019 WEB-DL 1080p] 2xMVO [HDrezka Studio Mallorn] +DVO [LakeFilms] bober100 Скачать
18 | 0
Фильмы 2019-2020 [DVDrip, WEB-DLRip, HDrip] (DUB, MVO) [ 1.42 GB ] Пушки Акимбо / Guns Akimbo [2019 BDRip] - Twi7ter Скачать
69 | 7
Фильмы [HD 720p, 1080p] (Хороший звук DUB, MVO) [ 5.67 GB ] Пушки Акимбо / Guns Akimbo [2019 BDRip 720p] +MVO [HDRezka Studio] bober100 Скачать
5 | 0
Фильмы 2019-2020 [DVDrip, WEB-DLRip, HDrip] (DUB, MVO) [ 2.7 GB ] Пушки Акимбо / Guns Akimbo [2019 BDRip-AVC] +MVO [HDRezka Studio] - ExKinoRay Mr. Grab Скачать
2 | 0
Фильмы 2019-2020 [DVDrip, WEB-DLRip, HDrip] (DUB, MVO) [ 744 MB ] Пушки Акимбо / Guns Akimbo [2019 HDRip] bober100 Скачать
3 | 0

28-11-2019 20:33  

Отключить всю рекламу на сайте

    Дорогой пользователь! Огромная просьба, поблагодарите релизера, оцените раздачу и оставьте свои комментарий, если Вы скачали Пушки Акимбо через торрент бесплатно! Внесите свою лепту в развитие PiratBit!
    Комментировать посты могут только пользователи прошедшие не сложную регистрацию
    Показать сообщения:    

    Пушки Акимбо через торрент
    Скачать бесплатно Пушки Акимбо
    Пушки Акимбо скачать торрент
    Пушки Акимбо смотреть онлайн
    Cкачать фильм Пушки Акимбо бесплатно
    Пушки Акимбо скачать торрент в хорошем качестве
    Пушки Акимбо смотреть онлайн бесплатно в хорошем качестве


    Вы не можете начинать темы
    Вы не можете отвечать на сообщения
    Вы не можете редактировать свои сообщения
    Вы не можете удалять свои сообщения
    Вы не можете голосовать в опросах
    Вы не можете прикреплять файлы к сообщениям
    Вы можете скачивать файлы