Ссылка на приватное зеркало нашего сайта всего за 1$. Внимание количество ограничено!!!

2 сезон

iTunes

1 сезон

1

2 сезон

2 сезон

iTunes

1 сезон

RePack

30

Новинка

ВАЖНО

ИГРА 18+

pack

RePack

MK11
pack

Забери бонус

RePack

jed

!!Акция!!

Alien_Rage

RePack

fifa19

RePack

Assassins Creed: Odyssey

RePack

NEED FOR SPEED™ PAYBACK

4 сезон

9 сезон

Бесстыжие 9 сезон

Все сериалы

все сериалы на PB.wtf

RePack

FAR CRY 5
  

1000 глаз доктора Мабузе / Die 1000 Augen des Dr. Mabuse (Фриц Ланг) [1960, триллер, криминал, детектив, BDRip-AVC by msltel] MVO piratbit.org

1000 глаз доктора Мабузе через торрент piratbit.org

Размер: 2.28 GB | Добавлен: 6 мес. назад | Торрент скачан:1 раз
Скачать  

26-04-2020 11:57 1000 глаз доктора Мабузе Скачать торрент  

Название: 1000 глаз доктора Мабузе
Оригинальное название: Die 1000 Augen des Dr. Mabuse
Год выпуска: 1960
Страна: Германия (ФРГ), Франция, Италия
Жанр: триллер, криминал, детектив
Продолжительность: 01:43:24
Перевод: профессиональный многоголосый
Режиссер: Фриц Ланг
В ролях: Дон Аддамс, Вольфганг Прейс, Герт Фрёбе, Петер ван Эйк

О фильме: В течение нескольких лет в ряде европейских стран происходят загадочные преступления: убийства, похищения людей, террористические акты, крупные финансовые кражи. Все они остаются нераскрытыми, но их объединяет одна общая черта — все жертвы бывали постояльцами берлинского отеля «Луксор». К комиссару полиции Крассу, ведущему дело об убийстве известного тележурналиста, обещавшего выступить с сенсационными разоблачениями, в добровольные помощники настойчиво набивается слепой ясновидящий Корнелиус...



Качество: BDRip-AVC
Формат: MKV
Видео: MPEG-4 AVC, 2711 Кбит/с, 954x576, 24 кадр/с
Аудио 1: русский, AC3, 256 kbps, 2 ch, 48 kHz [закадровый многоголосый, Film Prestige]
Аудио 2: немецкий, AC3, 192 kbps, 2 ch, 48 kHz [оригинал]
Субтитры 1: русские
Субтитры 2: английские
Субтитры 3: французские
Главы/чаптеры
Общее
Уникальный идентификатор : 175534634504877586409915913366994027893 (0x840EBDAAC540783DAFED01389ABA0575)
Полное имя : D:\Video\1000 глаз доктора Мабузе.1960.BDRip-AVC by msltel.mkv
Формат : Matroska
Версия формата : Version 4
Размер файла : 2,28 Гбайт
Продолжительность : 1 ч. 43 м.
Общий поток : 3 161 Кбит/сек
Название фильма : Rip by msltel
Дата кодирования : UTC 2020-04-26 10:50:39
Программа кодирования : mkvmerge v8.2.0 ('World of Adventure') 64bit
Библиотека кодирования : libebml v1.3.1 + libmatroska v1.4.2

Видео
Идентификатор : 1
Формат : AVC
Формат/Информация : Advanced Video Codec
Профиль формата : High@L4.1
Настройки формата : CABAC / 12 Ref Frames
Параметр CABAC формата : Да
Параметр RefFrames формата : 12 кадров
Идентификатор кодека : V_MPEG4/ISO/AVC
Продолжительность : 1 ч. 43 м.
Битрейт : 2 711 Кбит/сек
Ширина : 954 пикселя
Высота : 576 пикселей
Соотношение сторон : 5:3
Режим частоты кадров : Постоянный
Частота кадров : 24,000 кадра/сек
Цветовое пространство : YUV
Субдискретизация насыщенности : 4:2:0
Битовая глубина : 8 бит
Тип развёртки : Прогрессивная
Бит/(Пиксели*Кадры) : 0.206
Размер потока : 1,96 Гбайт (86%)
Библиотека кодирования : x264 core 159 r2991 1771b55
Настройки программы : cabac=1 / ref=12 / deblock=1:-2:-2 / analyse=0x3:0x113 / me=umh / subme=11 / psy=1 / psy_rd=1.00:0.15 / mixed_ref=1 / me_range=32 / chroma_me=1 / trellis=2 / 8x8dct=1 / cqm=0 / deadzone=21,11 / fast_pskip=0 / chroma_qp_offset=-3 / threads=6 / lookahead_threads=1 / sliced_threads=0 / nr=0 / decimate=1 / interlaced=0 / bluray_compat=0 / constrained_intra=0 / bframes=6 / b_pyramid=2 / b_adapt=2 / b_bias=0 / direct=1 / weightb=1 / open_gop=0 / weightp=2 / keyint=230 / keyint_min=23 / scenecut=40 / intra_refresh=0 / rc_lookahead=40 / rc=crf / mbtree=1 / crf=20.0 / qcomp=0.60 / qpmin=0 / qpmax=69 / qpstep=4 / vbv_maxrate=50000 / vbv_bufsize=62500 / crf_max=0.0 / nal_hrd=none / filler=0 / ip_ratio=1.40 / aq=1:1.00
Язык : German
Default : Да
Forced : Нет

Аудио #1
Идентификатор : 2
Формат : AC-3
Формат/Информация : Audio Coding 3
Коммерческое название : Dolby Digital
Идентификатор кодека : A_AC3
Продолжительность : 1 ч. 43 м.
Вид битрейта : Постоянный
Битрейт : 256 Кбит/сек
Каналы : 2 канала
Channel layout : L R
Частота : 48,0 КГц
Частота кадров : 31,250 кадров/сек (1536 SPF)
Метод сжатия : С потерями
Размер потока : 189 Мбайт (8%)
Заголовок : MVO Film Prestige
Язык : Russian
Service kind : Complete Main
Default : Да
Forced : Нет

Аудио #2
Идентификатор : 3
Формат : AC-3
Формат/Информация : Audio Coding 3
Коммерческое название : Dolby Digital
Идентификатор кодека : A_AC3
Продолжительность : 1 ч. 43 м.
Вид битрейта : Постоянный
Битрейт : 192 Кбит/сек
Каналы : 2 канала
Channel layout : L R
Частота : 48,0 КГц
Частота кадров : 31,250 кадров/сек (1536 SPF)
Метод сжатия : С потерями
Размер потока : 142 Мбайт (6%)
Заголовок : original
Язык : German
Service kind : Complete Main
Default : Нет
Forced : Нет

Текст #1
Идентификатор : 4
Формат : UTF-8
Идентификатор кодека : S_TEXT/UTF8
Идентификатор кодека/Информация : UTF-8 Plain Text
Продолжительность : 1 ч. 41 м.
Битрейт : 135 бит/сек
Count of elements : 1450
Размер потока : 101 Кбайт (0%)
Заголовок : русские
Язык : Russian
Default : Нет
Forced : Нет

Текст #2
Идентификатор : 5
Формат : UTF-8
Идентификатор кодека : S_TEXT/UTF8
Идентификатор кодека/Информация : UTF-8 Plain Text
Продолжительность : 1 ч. 41 м.
Битрейт : 74 бит/сек
Count of elements : 1441
Размер потока : 55,3 Кбайт (0%)
Заголовок : английские
Язык : English
Default : Нет
Forced : Нет

Текст #3
Идентификатор : 6
Формат : UTF-8
Идентификатор кодека : S_TEXT/UTF8
Идентификатор кодека/Информация : UTF-8 Plain Text
Продолжительность : 1 ч. 42 м.
Битрейт : 77 бит/сек
Count of elements : 1399
Размер потока : 58,7 Кбайт (0%)
Заголовок : французские
Язык : French
Default : Нет
Forced : Нет

Меню
00:00:00.000 : en:Chapter 1
00:08:20.041 : en:Chapter 2
00:18:30.166 : en:Chapter 3
00:27:08.291 : en:Chapter 4
00:37:00.083 : en:Chapter 5
00:47:05.458 : en:Chapter 6
00:56:00.416 : en:Chapter 7
01:03:13.791 : en:Chapter 8
01:11:28.333 : en:Chapter 9
01:20:53.708 : en:Chapter 10
01:30:29.208 : en:Chapter 11
01:38:42.083 : en:Chapter 12
piratbit.org



Скачать 1000 глаз доктора Мабузе через торрент https://d.radikal.ru/d10/2004/b0/103ab2e04ca0.jpg Скачать фильм 1000 глаз доктора Мабузе через торрент бесплантно в хорошем качестве О фильме: В течение нескольких лет в ряде европейских стран происходят загадочные преступления: убийства, похищения людей, террористические ... 5 10 1
Info! Золотая раздача, скачанное не засчитывается.
Торрент: Зарегистрирован [2020-04-26 11:57] · скачан: 1 раз
Статус: √ проверено
Размер: 2.28 GB
Как cкачать? Как скачать 1000 глаз доктора Мабузе через торрент | qTorrent

% Раздел Тема Автор DL S | L
Классика зарубежного кино [ 13.51 GB ] 1000 глаз доктора Мабузе / Die 1000 Augen des Dr. Mabuse [1960 BDRip 1080p by msltel] MVO msltel Скачать
1 | 0
Классика зарубежного кино [ 4.61 GB ] 1000 глаз доктора Мабузе / Die 1000 Augen des Dr. Mabuse [1960 BDRip 720p by msltel] MVO msltel Скачать
1 | 0

28-11-2019 20:33  

Отключить всю рекламу на сайте

    Дорогой пользователь! Огромная просьба, поблагодарите релизера, оцените раздачу и оставьте свои комментарий, если Вы скачали 1000 глаз доктора Мабузе через торрент бесплатно! Внесите свою лепту в развитие PiratBit!
    Комментировать посты могут только пользователи прошедшие не сложную регистрацию
    Показать сообщения:    

    1000 глаз доктора Мабузе через торрент
    Скачать бесплатно 1000 глаз доктора Мабузе
    1000 глаз доктора Мабузе скачать торрент
    1000 глаз доктора Мабузе смотреть онлайн
    Cкачать фильм 1000 глаз доктора Мабузе бесплатно
    1000 глаз доктора Мабузе скачать торрент в хорошем качестве
    1000 глаз доктора Мабузе смотреть онлайн бесплатно в хорошем качестве


    Вы не можете начинать темы
    Вы не можете отвечать на сообщения
    Вы не можете редактировать свои сообщения
    Вы не можете удалять свои сообщения
    Вы не можете голосовать в опросах
    Вы не можете прикреплять файлы к сообщениям
    Вы можете скачивать файлы