Достать ножи: Стеклянная луковица

MVO

Добыча

Дубляж

Уэнсдэй

1 сезон

Тор

Дубляж

13 клиническая

1 сезон

Жестокая ночь

MVO

Одни из нас

1 сезон

Deluxe

pack

Рекомендуем

30

Пиратка

ВАЖНО

ВАЖНО

Ghostwire

Пиратка

jed

RePack

nioh2

RePack

RDR2

RePack

NEED FOR SPEED™ PAYBACK

RePack

скачать торрент

Кинопоиск HD

Острые козырьки 6 сезон

6 сезон

FAR CRY 6

RePack

скачать торрент

Лицензия

скачать торрент

MVO

1

1 сезон

скачать торрент

1 сезон

скачать торрент

Лицензия

  

Джентльмены / The Gentlemen (Гай Ричи) [2019, боевик, комедия, криминал, UHD BDRemux 2160p] Дубляж (rus, ukr) [iTunes] + MVO + 3xAVO

Джентльмены через торрент piratbit.org

Размер: 51.38 GB | Добавлен: 2 года 9 мес. назад | Торрент скачан:167 раз
Смотреть онлайн | Скачать | Поддержите нас   

26-04-2020 12:50 Джентльмены Скачать торрент  

Джентльмены / The Gentlemen««Criminal. Class»»

Год выпуска: 2019
Страна: Великобритания, США
Жанр: боевик, комедия, криминал
Продолжительность: 01:53:40
Перевод: Дублированный, профессиональный многоголосый, авторский
Субтитры: Русские (Forced, Full), украинские (Full), английские (Full, SDH)
Режиссер: Гай Ричи

В ролях:

Мэттью МакКонахи (Michael Pearson), Чарли Ханнэм (Ray), Генри Голдинг (Dry Eye), Хью Грант (Fletcher), Мишель Докери (Rosalind Pearson), Джереми Стронг (Matthew), Эдди Марсан (Big Dave), Джейсон Вонг (Phuc), Колин Фаррелл (Coach), Лайн Рени (Jackie), Том Ву (Lord George), Чиди Аджуфо (Bunny)
Описание:
Один ушлый американец ещё со студенческих лет приторговывал наркотиками, а теперь придумал схему нелегального обогащения с использованием поместий обедневшей английской аристократии и очень неплохо на этом разбогател. Другой пронырливый журналист приходит к Рэю, правой руке американца, и предлагает тому купить киносценарий, в котором подробно описаны преступления его босса при участии других представителей лондонского криминального мира - партнёра-еврея, китайской диаспоры, чернокожих спортсменов и даже русского олигарха.
Рейтинг:

MPAA: R - Лицам до 17 лет обязательно присутствие взрослого
Качество: UHD BDRemux 2160p
Формат: MKV
Видео: 3840x2160 at 23.976 fps, MPEG-H HEVC HDR Video, 62000 kbps avg
Аудио: 48 kHz, AC3, 5.1, 384 Kbps | iTunes | RUS
Аудио: 48 kHz, AC3, 5.1, 448 Kbps | HDRezka | RUS (присутствует ненормативная лексика)
Аудио: 48 kHz, AC3, 5.1, 192 Kbps | Дмитрий Пучков aka Goblin | RUS (присутствует ненормативная лексика)
Аудио: 48 kHz, AC3, 5.1, 448 Kbps | Дмитрий Есарев | RUS (присутствует ненормативная лексика)
Аудио: 48 kHz, AC3, 5.1, 448 Kbps | Михаил Яроцкий | RUS (присутствует ненормативная лексика)
Аудио: 48 kHz, AC3, 2.0, 192 Kbps | iTunes | UKR
Аудио: 48 kHz, AC3, 5.1, 640 Kbps | Оригинал | ENG
Навигация по главам: есть

Код:

General
Unique ID                   : 30242939248245383365557056319122327238 (0x16C09406E91F9E56D14A40EBA52046C6)
Complete name               : C:\Users\hanma\Downloads\Movies\The Gentlemen 2019.BDRemux.2160p.HDR.seleZen.Rus.mkv
Format                      : Matroska
Format version              : Version 4
File size                   : 51.4 GiB
Duration                    : 1 h 53 min
Overall bit rate            : 64.7 Mb/s
Movie name                  : The Gentlemen 2019 from селезень
Encoded date                : UTC 2020-04-11 19:13:00
Writing application         : mkvmerge v45.0.0 ('Heaven in Pennies') 64-bit
Writing library             : libebml v1.3.10 + libmatroska v1.5.2

Video
ID                          : 1
Format                      : HEVC
Format/Info                 : High Efficiency Video Coding
Format profile              : Main 10@L5.1@High
HDR format                  : SMPTE ST 2086, HDR10 compatible
Codec ID                    : V_MPEGH/ISO/HEVC
Duration                    : 1 h 53 min
Bit rate                    : 62.0 Mb/s
Width                       : 3 840 pixels
Height                      : 2 160 pixels
Display aspect ratio        : 16:9
Frame rate mode             : Constant
Frame rate                  : 23.976 (24000/1001) FPS
Color space                 : YUV
Chroma subsampling          : 4:2:0 (Type 2)
Bit depth                   : 10 bits
Bits/(Pixel*Frame)          : 0.312
Stream size                 : 49.2 GiB (96%)
Language                    : English
Default                     : Yes
Forced                      : No
Color range                 : Limited
Color primaries             : BT.2020
Transfer characteristics    : PQ
Matrix coefficients         : BT.2020 non-constant
Mastering display color pri : Display P3
Mastering display luminance : min: 0.0050 cd/m2, max: 1000 cd/m2
Maximum Content Light Level : 940 cd/m2
Maximum Frame-Average Light : 819 cd/m2

Audio #1
ID                          : 2
Format                      : AC-3
Format/Info                 : Audio Coding 3
Commercial name             : Dolby Digital
Codec ID                    : A_AC3
Duration                    : 1 h 53 min
Bit rate mode               : Constant
Bit rate                    : 384 kb/s
Channel(s)                  : 6 channels
Channel layout              : L R C LFE Ls Rs
Sampling rate               : 48.0 kHz
Frame rate                  : 31.250 FPS (1536 SPF)
Compression mode            : Lossy
Stream size                 : 312 MiB (1%)
Title                       : iTunes
Language                    : Russian
Service kind                : Complete Main
Default                     : Yes
Forced                      : Yes

Audio #2
ID                          : 3
Format                      : AC-3
Format/Info                 : Audio Coding 3
Commercial name             : Dolby Digital
Codec ID                    : A_AC3
Duration                    : 1 h 53 min
Bit rate mode               : Constant
Bit rate                    : 448 kb/s
Channel(s)                  : 6 channels
Channel layout              : L R C LFE Ls Rs
Sampling rate               : 48.0 kHz
Frame rate                  : 31.250 FPS (1536 SPF)
Compression mode            : Lossy
Delay relative to video     : 24 s 0 ms
Stream size                 : 363 MiB (1%)
Title                       : MVO-HDRezka
Language                    : Russian
Service kind                : Complete Main
Default                     : No
Forced                      : No

Audio #3
ID                          : 4
Format                      : AC-3
Format/Info                 : Audio Coding 3
Commercial name             : Dolby Digital
Codec ID                    : A_AC3
Duration                    : 1 h 53 min
Bit rate mode               : Constant
Bit rate                    : 192 kb/s
Channel(s)                  : 2 channels
Channel layout              : L R
Sampling rate               : 48.0 kHz
Frame rate                  : 31.250 FPS (1536 SPF)
Compression mode            : Lossy
Delay relative to video     : 24 s 0 ms
Stream size                 : 156 MiB (0%)
Title                       : AVO-Дмитрий «Goblin» Пучков
Language                    : Russian
Service kind                : Complete Main
Default                     : No
Forced                      : No

Audio #4
ID                          : 5
Format                      : AC-3
Format/Info                 : Audio Coding 3
Commercial name             : Dolby Digital
Codec ID                    : A_AC3
Duration                    : 1 h 53 min
Bit rate mode               : Constant
Bit rate                    : 448 kb/s
Channel(s)                  : 6 channels
Channel layout              : L R C LFE Ls Rs
Sampling rate               : 48.0 kHz
Frame rate                  : 31.250 FPS (1536 SPF)
Compression mode            : Lossy
Delay relative to video     : 24 s 0 ms
Stream size                 : 363 MiB (1%)
Title                       : VO-Д. Есарев
Language                    : Russian
Service kind                : Complete Main
Default                     : No
Forced                      : No

Audio #5
ID                          : 6
Format                      : AC-3
Format/Info                 : Audio Coding 3
Commercial name             : Dolby Digital
Codec ID                    : A_AC3
Duration                    : 1 h 53 min
Bit rate mode               : Constant
Bit rate                    : 448 kb/s
Channel(s)                  : 6 channels
Channel layout              : L R C LFE Ls Rs
Sampling rate               : 48.0 kHz
Frame rate                  : 31.250 FPS (1536 SPF)
Compression mode            : Lossy
Delay relative to video     : 24 s 0 ms
Stream size                 : 363 MiB (1%)
Title                       : VO-М. Яроцкий
Language                    : Russian
Service kind                : Complete Main
Default                     : No
Forced                      : No

Audio #6
ID                          : 7
Format                      : AC-3
Format/Info                 : Audio Coding 3
Commercial name             : Dolby Digital
Codec ID                    : A_AC3
Duration                    : 1 h 53 min
Bit rate mode               : Constant
Bit rate                    : 192 kb/s
Channel(s)                  : 2 channels
Channel layout              : L R
Sampling rate               : 48.0 kHz
Frame rate                  : 31.250 FPS (1536 SPF)
Compression mode            : Lossy
Stream size                 : 156 MiB (0%)
Title                       : Дубляж-iTunes-UKR
Language                    : Ukrainian
Service kind                : Complete Main
Default                     : No
Forced                      : No

Audio #7
ID                          : 8
Format                      : AC-3
Format/Info                 : Audio Coding 3
Commercial name             : Dolby Digital
Codec ID                    : A_AC3
Duration                    : 1 h 53 min
Bit rate mode               : Constant
Bit rate                    : 640 kb/s
Channel(s)                  : 6 channels
Channel layout              : L R C LFE Ls Rs
Sampling rate               : 48.0 kHz
Frame rate                  : 31.250 FPS (1536 SPF)
Compression mode            : Lossy
Stream size                 : 520 MiB (1%)
Title                       : Original
Language                    : English
Service kind                : Complete Main
Default                     : No
Forced                      : No

Text #1
ID                          : 9
Format                      : UTF-8
Codec ID                    : S_TEXT/UTF8
Codec ID/Info               : UTF-8 Plain Text
Duration                    : 1 h 45 min
Bit rate                    : 4 b/s
Count of elements           : 46
Stream size                 : 3.37 KiB (0%)
Title                       : Forced
Language                    : Russian
Default                     : Yes
Forced                      : Yes

Text #2
ID                          : 10
Format                      : UTF-8
Codec ID                    : S_TEXT/UTF8
Codec ID/Info               : UTF-8 Plain Text
Duration                    : 1 h 47 min
Bit rate                    : 127 b/s
Count of elements           : 1711
Stream size                 : 101 KiB (0%)
Title                       : Full
Language                    : Russian
Default                     : No
Forced                      : No

Text #3
ID                          : 11
Format                      : UTF-8
Codec ID                    : S_TEXT/UTF8
Codec ID/Info               : UTF-8 Plain Text
Duration                    : 1 h 47 min
Bit rate                    : 135 b/s
Count of elements           : 1992
Stream size                 : 107 KiB (0%)
Title                       : Full
Language                    : Ukrainian
Default                     : No
Forced                      : No

Text #4
ID                          : 12
Format                      : UTF-8
Codec ID                    : S_TEXT/UTF8
Codec ID/Info               : UTF-8 Plain Text
Duration                    : 1 h 47 min
Bit rate                    : 84 b/s
Count of elements           : 1812
Stream size                 : 67.0 KiB (0%)
Title                       : Full
Language                    : English
Default                     : No
Forced                      : No

Text #5
ID                          : 13
Format                      : UTF-8
Codec ID                    : S_TEXT/UTF8
Codec ID/Info               : UTF-8 Plain Text
Duration                    : 1 h 50 min
Bit rate                    : 94 b/s
Count of elements           : 2088
Stream size                 : 76.8 KiB (0%)
Title                       : SDH
Language                    : English
Default                     : No
Forced                      : No

Menu
00:00:00.000                : en:Chapter 01
00:04:27.100                : en:Chapter 02
00:08:16.413                : en:Chapter 03
00:13:42.780                : en:Chapter 04
00:19:21.494                : en:Chapter 05
00:24:49.988                : en:Chapter 06
00:30:23.530                : en:Chapter 07
00:37:17.944                : en:Chapter 08
00:41:55.430                : en:Chapter 09
00:48:38.874                : en:Chapter 10
00:56:51.199                : en:Chapter 11
01:03:34.102                : en:Chapter 12
01:08:45.038                : en:Chapter 13
01:14:18.204                : en:Chapter 14
01:19:05.991                : en:Chapter 15
01:24:30.023                : en:Chapter 16
01:29:24.776                : en:Chapter 17
01:34:21.114                : en:Chapter 18
01:40:11.130                : en:Chapter 19
01:48:37.511                : en:Chapter 20




Скачать Джентльмены через торрент https://d.radikal.ru/d05/2004/7a/5df22c43f0ba.png Скачать, смотреть онлайн Джентльмены бесплантно в хорошем качестве Описание: Один ушлый американец ещё со студенческих лет приторговывал наркотиками, а теперь придумал схему нелегального обогащения с ... 9.8 10 8
Торрент: Зарегистрирован [2020-04-26 12:50] · скачан: 167 раз
Статус: √ проверено
Размер: 51.38 GB
Как cкачать? Как скачать Джентльмены через торрент | UTorrent

% Раздел Тема Автор DL S | L
Ultra HD (UHD: 2K, 4K, 8K) [ 15.83 GB ] Джентльмены / The Gentlemen | iTunes | 2160p sheker187 Скачать
3 | 1
Фильмы (WEB-DL 720p, 1080p) [ 9.43 GB ] Джентльмены / The Gentlemen | iTunes | 1080p bober100 Скачать
2 | 0
Фильмы (WEB-DL 720p, 1080p) [ 4.62 GB ] Джентльмены / The Gentlemen | HDRezka Studio | 720p bober100 Скачать
4 | 0

28-11-2019 20:33  


Отключить вcю реклaмy на сайте, в т.ч. и в плеере онлайн просмотра!

    Дорогой пользователь! Огромная просьба, поблагодарите релизера, оцените раздачу и оставьте свои комментарий, если Вы скачали Джентльмены через торрент бесплатно!!
    Комментировать посты могут только пользователи прошедшие не сложную регистрацию
    Показать сообщения:    


    Джентльмены через торрент
    Скачать бесплатно Джентльмены
    Джентльмены скачать торрент
    Джентльмены смотреть онлайн
    Cкачать фильм Джентльмены бесплатно
    Джентльмены скачать торрент в хорошем качестве
    Джентльмены смотреть онлайн бесплатно в хорошем качестве
    Вы не можете начинать темы
    Вы не можете отвечать на сообщения
    Вы не можете редактировать свои сообщения
    Вы не можете удалять свои сообщения
    Вы не можете голосовать в опросах
    Вы не можете прикреплять файлы к сообщениям
    Вы можете скачивать файлы
    Джентльмены / The Gentlemen [2019, боевик, комедия, криминал, UHD BDRemux 2160p] Дубляж [iTunes] + MVO + 3xAVO смотреть онлайн, скачать торрент picoco.icu