Доктор Стрэндж

Лицензия

Добыча

Дубляж

Дом дракона

1 сезон

Тор

Дубляж

В эфире

Дубляж

Там, где раки поют

MVO

Властелин колец

1 сезон

Deluxe

pack

Рекомендуем

30

Пиратка

ВАЖНО

ВАЖНО

Ghostwire

Пиратка

jed

RePack

nioh2

RePack

RDR2

RePack

NEED FOR SPEED™ PAYBACK

RePack

скачать торрент

Кинопоиск HD

Острые козырьки 6 сезон

6 сезон

FAR CRY 6

RePack

скачать торрент

Лицензия

скачать торрент

MVO

1

1 сезон

скачать торрент

1 сезон

скачать торрент

Лицензия

  

Безупречный / Bad Education (Кори Финли) [2019, драма, комедия, WEB-DLRip-AVC] MVO [Новамедиа]

Безупречный через торрент piratbit.org

Раздают: 1 [ 0 KB/s ]
Размер: 741 MB | Добавлен: 2 года 7 мес. назад | Торрент скачан:59 раз
Смотреть онлайн | Скачать   

27-04-2020 18:34 Безупречный Скачать торрент  

Безупречный
Bad Education

«Some People Learn the Hard Way»

Страна: США
Жанр: драма, комедия
Год выпуска: 2019
Продолжительность: 01:48:37

Перевод: Профессиональный (многоголосый, закадровый) [Новамедиа]
Субтитры: русские (форсированные)
Оригинальная аудиодорожка: нет

Режиссер: Кори Финли / Cory Finley

В ролях: Хью Джекман, Эллисон Дженни, Алекс Вулф, Кэтрин Нардуччи, Аннали Эшфорд, Рэй Романо, Джеральдин Висванатхан, Джимми Татро, Кэйли Картер, Стефани Курцуба

Описание: Фрэнк - умный, сильный и харизматичный директор престижной школы в богатом пригороде Нью-Йорка. Его выпускники с легкостью поступают в лучшие университеты страны, а от родителей и фондов в бюджет льются рекой многомиллионные суммы. Газеты пестрят его фотографиями в компании со знаменитыми политиками и спортсменами, да и сам он ведет исключительно роскошный образ жизни. Но стоит только позволить своим секретам стать достоянием общественности, и его безупречная репутация может рассыпаться как карточный домик.



Релиз:

Автор рипа: stalkerok
Источник звука HDTV 1080i, запись с канала Amediateka Home of HBO nonstop2015
За форсированные субтитры спасибо mike7025

Сэмпл

Качество видео: WEB-DLRip-AVC | Исходник: Bad.Education.2019.1080p.AMZN.WEB-DL.DDP5.1.H.264-NTG
Формат видео: MKV
Видео кодек: AVC
Аудио кодек: AAC
Видео: AVC, 892 Кбит/сек, 768x324 (2.40:1), 23,976 кадр/сек
Аудио: AAC, 64 Кбит/сек, 48 КГц, 2.0 - русский
---[Information] [27.04.2020 21:08:11] x264 [info]: frame I:1097 Avg QP:17.08 size: 37283
---[Information] [27.04.2020 21:08:11] x264 [info]: frame P:32330 Avg QP:19.64 size: 9983
---[Information] [27.04.2020 21:08:12] x264 [info]: frame B:122837 Avg QP:20.71 size: 2950
---[Information] [27.04.2020 21:08:12] x264 [info]: consecutive B-frames: 1.2% 1.5% 5.7% 28.9% 15.4% 31.0% 6.6% 6.1% 1.1% 0.5% 0.2% 1.3% 0.1% 0.1% 0.0% 0.1% 0.1%

General
Unique ID : 169106368131143399163574436557585183050 (0x7F38B3AA47F8FEA828AAC722A7E8F14A)
Complete name : C:\temp\Bad Education\Bad.Education.2019.WEB-DLRip.x264.745Mb.Rus.stalkerok.New-Team.mkv
Format : Matroska
Format version : Version 4
File size : 741 MiB
Duration : 1 h 48 min
Overall bit rate : 954 kb/s
Movie name : Bad Education (2019) | Rip by stalkerok
Encoded date : UTC 2020-04-27 18:24:36
Writing application : mkvmerge v44.0.0 ('Domino') 64-bit
Writing library : libebml v1.3.10 + libmatroska v1.5.2

Video
ID : 1
Format : AVC
Format/Info : Advanced Video Codec
Format profile : High@L4.1
Format settings : CABAC / 12 Ref Frames
Format settings, CABAC : Yes
Format settings, Reference frames : 12 frames
Codec ID : V_MPEG4/ISO/AVC
Duration : 1 h 48 min
Bit rate : 892 kb/s
Width : 768 pixels
Height : 324 pixels
Display aspect ratio : 2.40:1
Frame rate mode : Constant
Frame rate : 23.976 FPS
Color space : YUV
Chroma subsampling : 4:2:0
Bit depth : 8 bits
Scan type : Progressive
Bits/(Pixel*Frame) : 0.150
Stream size : 692 MiB (93%)
Title : Bad Education (2019) | Rip by stalkerok
Writing library : x264 core 160 r3000 33f9e14
Encoding settings : cabac=1 / ref=12 / deblock=1:-2:-2 / analyse=0x3:0x133 / me=umh / subme=10 / psy=1 / psy_rd=1.00:0.00 / mixed_ref=1 / me_range=32 / chroma_me=1 / trellis=2 / 8x8dct=1 / cqm=0 / deadzone=21,11 / fast_pskip=0 / chroma_qp_offset=-2 / threads=10 / lookahead_threads=2 / sliced_threads=0 / nr=0 / decimate=0 / interlaced=0 / bluray_compat=0 / constrained_intra=0 / bframes=16 / b_pyramid=2 / b_adapt=2 / b_bias=0 / direct=3 / weightb=1 / open_gop=0 / weightp=2 / keyint=240 / keyint_min=23 / scenecut=40 / intra_refresh=0 / rc_lookahead=60 / rc=2pass / mbtree=0 / bitrate=892 / ratetol=1.0 / qcomp=0.65 / qpmin=0 / qpmax=69 / qpstep=4 / cplxblur=20.0 / qblur=0.5 / vbv_maxrate=50000 / vbv_bufsize=62500 / nal_hrd=none / filler=0 / ip_ratio=1.40 / pb_ratio=1.30 / aq=3:1.00
Default : Yes
Forced : No

Audio
ID : 3
Format : AAC LC SBR
Format/Info : Advanced Audio Codec Low Complexity with Spectral Band Replication
Commercial name : HE-AAC
Format settings : Explicit
Codec ID : A_AAC-2
Duration : 1 h 44 min
Bit rate : 64.0 kb/s
Channel(s) : 2 channels
Channel layout : L R
Sampling rate : 48.0 kHz
Frame rate : 23.438 FPS (2048 SPF)
Compression mode : Lossy
Delay relative to video : 31 ms
Stream size : 47.7 MiB (6%)
Language : Russian
Default : Yes
Forced : No

Text
ID : 2
Format : UTF-8
Codec ID : S_TEXT/UTF8
Codec ID/Info : UTF-8 Plain Text
Duration : 1 h 41 min
Bit rate : 2 b/s
Count of elements : 33
Stream size : 2.24 KiB (0%)
Title : Forced
Language : Russian
Default : Yes
Forced : No



Скачать Безупречный через торрент http://i6-imageban-ru.translate.goog/out/2017/09/18/2ff75c0c358795c5946784cc1680714d.png Скачать, смотреть онлайн Безупречный бесплантно в хорошем качестве Описание: Фрэнк - умный, сильный и харизматичный директор престижной школы в богатом пригороде Нью-Йорка. Его выпускники с легкостью ... 7 10 3
Info! Золотая раздача, скачанное не засчитывается.
Торрент: Зарегистрирован [2020-04-27 18:34] · скачан: 59 раз
Статус: √ проверено
Размер: 741 MB
Как cкачать? Как скачать Безупречный через торрент | UTorrent

% Раздел Тема Автор DL S | L
Фильмы 2019-2020 [DVDrip, WEB-DLRip, HDrip] (DUB, MVO) [ 1.41 GB ] Безупречный / Bad Education | MVO | BDRip Twi7ter Скачать
4 | 1
Фильмы 2019-2020 [DVDrip, WEB-DLRip, HDrip] (DUB, MVO) [ 748 MB ] Безупречный / Bad Education | MVO | DLRip bober100 Скачать
1 | 0
Фильмы 2019-2020 [DVDrip, WEB-DLRip, HDrip] (DUB, MVO) [ 1.46 GB ] Безупречный / Bad Education | MVO | BDRip bober100 Скачать
2 | 0
Фильмы 2019-2020 [DVDrip, WEB-DLRip, HDrip] (DUB, MVO) [ 3.02 GB ] Безупречный / Bad Education | MVO | DLRip-AVC Mr. Grab Скачать
1 | 0
Фильмы 2019-2020 [DVDrip, WEB-DLRip, HDrip] (DUB, MVO) [ 2.19 GB ] Безупречный / Bad Education | MVO | DLRip-AVC sokol_ok Скачать
2 | 0
Фильмы (WEB-DL 720p, 1080p) [ 4.79 GB ] Безупречный / Bad Education | MVO | 720p bober100 Скачать
2 | 0
Фильмы (WEB-DL 720p, 1080p) [ 7.77 GB ] Безупречный / Bad Education | MVO | 1080p sokol_ok Скачать
2 | 0

28-11-2019 20:33  


Отключить вcю реклaмy на сайте, в т.ч. и в плеере онлайн просмотра!

    Дорогой пользователь! Огромная просьба, поблагодарите релизера, оцените раздачу и оставьте свои комментарий, если Вы скачали Безупречный через торрент бесплатно!!
    Комментировать посты могут только пользователи прошедшие не сложную регистрацию
    Показать сообщения:    


    Безупречный через торрент
    Скачать бесплатно Безупречный
    Безупречный скачать торрент
    Безупречный смотреть онлайн
    Cкачать фильм Безупречный бесплатно
    Безупречный скачать торрент в хорошем качестве
    Безупречный смотреть онлайн бесплатно в хорошем качестве
    Вы не можете начинать темы
    Вы не можете отвечать на сообщения
    Вы не можете редактировать свои сообщения
    Вы не можете удалять свои сообщения
    Вы не можете голосовать в опросах
    Вы не можете прикреплять файлы к сообщениям
    Вы можете скачивать файлы
    Безупречный / Bad Education [2019, драма, комедия, WEB-DLRip-AVC] MVO [Новамедиа] смотреть онлайн, скачать торрент picoco.icu