Доктор Стрэндж

Лицензия

Добыча

Дубляж

Уэнсдэй

1 сезон

Тор

Дубляж

В эфире

Дубляж

Там, где раки поют

MVO

Властелин колец

1 сезон

Deluxe

pack

Рекомендуем

30

Пиратка

ВАЖНО

ВАЖНО

Ghostwire

Пиратка

jed

RePack

nioh2

RePack

RDR2

RePack

NEED FOR SPEED™ PAYBACK

RePack

скачать торрент

Кинопоиск HD

Острые козырьки 6 сезон

6 сезон

FAR CRY 6

RePack

скачать торрент

Лицензия

скачать торрент

MVO

1

1 сезон

скачать торрент

1 сезон

скачать торрент

Лицензия

  

Безупречный / Bad Education (Кори Финли) [2019, Драма, комедия, WEB-DLRip-AVC] MVO [Novamedia] - ExKinoRay

Безупречный через торрент piratbit.org

Размер: 3.02 GB | Добавлен: 2 года 7 мес. назад | Торрент скачан:83 раза
Смотреть онлайн | Скачать   

28-04-2020 02:57 Безупречный Скачать торрент  

Безупречный / Bad Education
Год выпуска: 2019
Страна: США / Automatik Entertainment, HBO Films, Sight Unseen Pictures
Жанр: Драма, комедия
Продолжительность: 01:48:37
Перевод: Профессиональный многоголосый [Novamedia]
Субтитры: Русские (Forced), английские (Full)

Режиссер: Кори Финли

rating

В ролях: Хью Джекман, Эллисон Джэнни, Алекс Вулф, Кэтрин Нардуччи, Аннали Эшфорд, Рэй Романо, Джеральдин Висванатхан, Джимми Татро, Кэйли Картер, Стефани Курцуба

Описание: Фрэнк - умный, сильный и харизматичный директор престижной школы в богатом пригороде Нью-Йорка. Его выпускники с легкостью поступают в лучшие университеты страны, а от родителей и фондов в бюджет льются рекой многомиллионные суммы. Газеты пестрят его фотографиями в компании со знаменитыми политиками и спортсменами, да и сам он ведет исключительно роскошный образ жизни. Но стоит только позволить своим секретам стать достоянием общественности, и его безупречная репутация может рассыпаться как карточный домик.

Качество: WEB-DLRip-AVC
Формат: MKV
Видео кодек: H.264
Аудио кодек: AC3
Видео: MPEG-4 AVC, 3213 Kбит/с, 1024x432
Аудио#1: Русский (AC3, 6 ch, 384 Кбит/с) MVO (Novamedia)
Аудио#2: Английский (AC3, 6 ch, 384 Кбит/с) Original

Релиз от: VK релиз-группы
Общее
Уникальный идентификатор : 234878244307473897489715377855165613978 (0xB0B3E786BCE3F1ABBDAF3823F6F7C79A)
Полное имя : D:\Раздача\Bezuprechnyyi.2019.WEB-DLRip-AVC.ExKinoRay.mkv
Формат : Matroska
Версия формата : Version 4 / Version 2
Размер файла : 3,02 Гбайт
Продолжительность : 1 ч. 48 м.
Общий поток : 3983 Кбит/сек
Название фильма : Bad Education.2019.WEB-DLRip-AVC.grab777 & ExKinoRay
Дата кодирования : UTC 2020-04-28 01:39:54
Программа кодирования : mkvmerge v7.3.0 ('Nouages') 64bit built on Oct 22 2014 18:53:34
Библиотека кодирования : libebml v1.3.0 + libmatroska v1.4.1

Видео
Идентификатор : 1
Формат : AVC
Формат/Информация : Advanced Video Codec
Профиль формата : High@L4.1
Настройки формата : CABAC / 12 Ref Frames
Параметр CABAC формата : Да
Параметр RefFrames формата : 12 кадров
Идентификатор кодека : V_MPEG4/ISO/AVC
Продолжительность : 1 ч. 48 м.
Битрейт : 3213 Кбит/сек
Ширина : 1024 пикселя
Высота : 432 пикселя
Соотношение сторон : 2,40:1
Режим частоты кадров : Переменный
Частота кадров : 23,976 кадра/сек
Цветовое пространство : YUV
Субдискретизация насыщенности : 4:2:0
Битовая глубина : 8 бит
Тип развёртки : Прогрессивная
Бит/(Пиксели*Кадры) : 0.303
Размер потока : 2,44 Гбайт (81%)
Заголовок : Rip by grab777
Библиотека кодирования : x264 core 148 r2665M a01e339
Настройки программы : cabac=1 / ref=12 / deblock=1:-2:-2 / analyse=0x3:0x133 / me=umh / subme=10 / psy=1 / psy_rd=1.00:0.15 / mixed_ref=1 / me_range=32 / chroma_me=1 / trellis=2 / 8x8dct=1 / cqm=0 / deadzone=21,11 / fast_pskip=0 / chroma_qp_offset=-3 / threads=5 / lookahead_threads=1 / sliced_threads=0 / nr=0 / decimate=1 / interlaced=0 / bluray_compat=0 / constrained_intra=0 / bframes=10 / b_pyramid=2 / b_adapt=2 / b_bias=0 / direct=3 / weightb=1 / open_gop=0 / weightp=2 / keyint=230 / keyint_min=23 / scenecut=40 / intra_refresh=0 / rc_lookahead=40 / rc=crf / mbtree=1 / crf=18.3 / qcomp=0.90 / qpmin=1 / qpmax=69 / qpstep=4 / vbv_maxrate=30000 / vbv_bufsize=40000 / crf_max=0.0 / nal_hrd=none / filler=0 / ip_ratio=1.40 / aq=1:0.00
Язык : English
Default : Да
Forced : Нет
Цветовой диапазон : Limited
Основные цвета : BT.709
Характеристики трансфера : BT.709
Коэффициенты матрицы : BT.709

Аудио #1
Идентификатор : 2
Формат : AC-3
Формат/Информация : Audio Coding 3
Параметр Endianness формата : Big
Идентификатор кодека : A_AC3
Продолжительность : 1 ч. 48 м.
Вид битрейта : Постоянный
Битрейт : 384 Кбит/сек
Каналы : 6 каналов
Расположение каналов : Front: L C R, Side: L R, LFE
Частота : 48,0 КГц
Частота кадров : 31,250 кадров/сек (1536 SPF)
Битовая глубина : 16 бит
Метод сжатия : С потерями
Размер потока : 298 Мбайт (10%)
Заголовок : MVO (Novamedia)
Язык : Russian
ServiceKind/String : Complete Main
Default : Да
Forced : Да

Аудио #2
Идентификатор : 3
Формат : AC-3
Формат/Информация : Audio Coding 3
Параметр Endianness формата : Big
Идентификатор кодека : A_AC3
Продолжительность : 1 ч. 48 м.
Вид битрейта : Постоянный
Битрейт : 384 Кбит/сек
Каналы : 6 каналов
Расположение каналов : Front: L C R, Side: L R, LFE
Частота : 48,0 КГц
Частота кадров : 31,250 кадров/сек (1536 SPF)
Битовая глубина : 16 бит
Метод сжатия : С потерями
Размер потока : 298 Мбайт (10%)
Заголовок : Original
Язык : English
ServiceKind/String : Complete Main
Default : Нет
Forced : Нет

Текст #1
Идентификатор : 4
Формат : UTF-8
Идентификатор кодека : S_TEXT/UTF8
Идентификатор кодека/Информация : UTF-8 Plain Text
Продолжительность : 1 ч. 41 м.
Битрейт : 2 бит/сек
ElementCount : 21
Размер потока : 1,71 Кбайт (0%)
Заголовок : Forced
Язык : Russian
Default : Да
Forced : Да

Текст #2
Идентификатор : 5
Формат : UTF-8
Идентификатор кодека : S_TEXT/UTF8
Идентификатор кодека/Информация : UTF-8 Plain Text
Продолжительность : 1 ч. 46 м.
Битрейт : 71 бит/сек
ElementCount : 1761
Размер потока : 55,7 Кбайт (0%)
Заголовок : Full
Язык : English
Default : Нет
Forced : Нет

Меню
00:00:00.000 : :Глава 1
00:18:25.104 : :Глава 2
00:34:04.042 : :Глава 3
00:50:23.020 : :Глава 4
01:08:22.098 : :Глава 5
01:33:09.584 : :Глава 6




Скачать Безупречный через торрент https://pic1.kartinco.top/images/12/v4mdh.jpg Скачать, смотреть онлайн Безупречный бесплантно в хорошем качестве Описание: Фрэнк - умный, сильный и харизматичный директор престижной школы в богатом пригороде Нью-Йорка. Его выпускники с легкостью ... 8 10 4
Торрент: Зарегистрирован [2020-04-28 02:57] · скачан: 83 раз
Статус: √ проверено
Размер: 3.02 GB
Как cкачать? Как скачать Безупречный через торрент | UTorrent

28-11-2019 20:33  


Отключить вcю реклaмy на сайте, в т.ч. и в плеере онлайн просмотра!

28-04-2020 09:31 Безупречный Скачать торрент  

полнейший отстой



    Дорогой пользователь! Огромная просьба, поблагодарите релизера, оцените раздачу и оставьте свои комментарий, если Вы скачали Безупречный через торрент бесплатно!!
    Комментировать посты могут только пользователи прошедшие не сложную регистрацию
    Показать сообщения:    


    Безупречный через торрент
    Скачать бесплатно Безупречный
    Безупречный скачать торрент
    Безупречный смотреть онлайн
    Cкачать фильм Безупречный бесплатно
    Безупречный скачать торрент в хорошем качестве
    Безупречный смотреть онлайн бесплатно в хорошем качестве
    Вы не можете начинать темы
    Вы не можете отвечать на сообщения
    Вы не можете редактировать свои сообщения
    Вы не можете удалять свои сообщения
    Вы не можете голосовать в опросах
    Вы не можете прикреплять файлы к сообщениям
    Вы можете скачивать файлы
    Безупречный / Bad Education [2019, Драма, комедия, WEB-DLRip-AVC] MVO [Novamedia] - ExKinoRay смотреть онлайн, скачать торрент picoco.icu