Доктор Стрэндж

Лицензия

Добыча

Дубляж

Уэнсдэй

1 сезон

Тор

Дубляж

В эфире

Дубляж

Там, где раки поют

MVO

Властелин колец

1 сезон

Deluxe

pack

Рекомендуем

30

Пиратка

ВАЖНО

ВАЖНО

Ghostwire

Пиратка

jed

RePack

nioh2

RePack

RDR2

RePack

NEED FOR SPEED™ PAYBACK

RePack

скачать торрент

Кинопоиск HD

Острые козырьки 6 сезон

6 сезон

FAR CRY 6

RePack

скачать торрент

Лицензия

скачать торрент

MVO

1

1 сезон

скачать торрент

1 сезон

скачать торрент

Лицензия

  

Безупречный / Bad Education (Кори Финли) [2019, драма, комедия, WEB-DLRip-AVC] MVO [Новамедиа]

Безупречный через торрент piratbit.org

Раздают: 1 [ 0 KB/s ]
Размер: 2.19 GB | Добавлен: 2 года 7 мес. назад | Торрент скачан:340 раз
Смотреть онлайн | Скачать   

28-04-2020 06:24 Безупречный Скачать торрент  

Безупречный
Bad Education

«Some People Learn the Hard Way»

Страна: США
Жанр: драма, комедия
Год выпуска: 2019
Продолжительность: 01:48:37

Перевод: Профессиональный (многоголосый, закадровый) [Новамедиа]
Субтитры: русские (форсированные), английские (полные, SDH)
Оригинальная аудиодорожка: английский

Режиссер: Кори Финли / Cory Finley

В ролях: Хью Джекман, Эллисон Дженни, Алекс Вулф, Кэтрин Нардуччи, Аннали Эшфорд, Рэй Романо, Джеральдин Висванатхан, Джимми Татро, Кэйли Картер, Стефани Курцуба

Описание: Фрэнк - умный, сильный и харизматичный директор престижной школы в богатом пригороде Нью-Йорка. Его выпускники с легкостью поступают в лучшие университеты страны, а от родителей и фондов в бюджет льются рекой многомиллионные суммы. Газеты пестрят его фотографиями в компании со знаменитыми политиками и спортсменами, да и сам он ведет исключительно роскошный образ жизни. Но стоит только позволить своим секретам стать достоянием общественности, и его безупречная репутация может рассыпаться как карточный домик.



Релиз:

Автор рипа: stalkerok
Источник звука HDTV 1080i, запись с канала Amediateka Home of HBO nonstop2015
За форсированные субтитры спасибо mike7025

Сэмпл

Качество видео: WEB-DLRip-AVC | Исходник: Bad.Education.2019.1080p.AMZN.WEB-DL.DDP5.1.H.264-NTG
Формат видео: MKV
Видео кодек: AVC
Аудио кодек: AC3
Видео: AVC, 2073 Кбит/сек, 1024x432 (2.40:1), 23,976 кадр/сек
Аудио №1: AC3, 384 Кбит/сек, 48 КГц, 5.1 - русский
Аудио №2: AC3, 448 Кбит/сек, 48 КГц, 5.1 - английский
---[Information] [28.04.2020 1:32:33] x264 [info]: frame I:1080 Avg QP:19.06 size: 55179
---[Information] [28.04.2020 1:32:33] x264 [info]: frame P:31647 Avg QP:20.03 size: 20491
---[Information] [28.04.2020 1:32:33] x264 [info]: frame B:123537 Avg QP:21.36 size: 7941
---[Information] [28.04.2020 1:32:33] x264 [info]: consecutive B-frames: 1.1% 1.3% 3.8% 28.8% 14.8% 35.8% 6.5% 4.1% 1.2% 1.2% 1.1% 0.2% 0.1% 0.1% 0.0% 0.0%

General
Unique ID : 13369079142320797191390998647626778358 (0xA0ECA7DFCA6D2A7E4BF6F98772FC6F6)
Complete name : C:\temp\Bad Education\Bad.Education.2019.WEB-DLRip.x264.Rus.Eng.stalkerok.New-Team.mkv
Format : Matroska
Format version : Version 4
File size : 2.19 GiB
Duration : 1 h 48 min
Overall bit rate : 2 892 kb/s
Movie name : Bad Education (2019) | Rip by stalkerok
Encoded date : UTC 2020-04-28 04:44:40
Writing application : mkvmerge v44.0.0 ('Domino') 64-bit
Writing library : libebml v1.3.10 + libmatroska v1.5.2

Video
ID : 1
Format : AVC
Format/Info : Advanced Video Codec
Format profile : High@L4.1
Format settings : CABAC / 12 Ref Frames
Format settings, CABAC : Yes
Format settings, Reference frames : 12 frames
Codec ID : V_MPEG4/ISO/AVC
Duration : 1 h 48 min
Bit rate : 2 073 kb/s
Width : 1 024 pixels
Height : 432 pixels
Display aspect ratio : 2.40:1
Frame rate mode : Constant
Frame rate : 23.976 FPS
Color space : YUV
Chroma subsampling : 4:2:0
Bit depth : 8 bits
Scan type : Progressive
Bits/(Pixel*Frame) : 0.195
Stream size : 1.57 GiB (72%)
Title : Bad Education (2019) | Rip by stalkerok
Writing library : x264 core 160 r3000 33f9e14
Encoding settings : cabac=1 / ref=12 / deblock=1:-2:-2 / analyse=0x3:0x133 / me=umh / subme=10 / psy=1 / psy_rd=1.00:0.00 / mixed_ref=1 / me_range=32 / chroma_me=1 / trellis=2 / 8x8dct=1 / cqm=0 / deadzone=21,11 / fast_pskip=0 / chroma_qp_offset=-2 / threads=12 / lookahead_threads=3 / sliced_threads=0 / nr=0 / decimate=1 / interlaced=0 / bluray_compat=0 / constrained_intra=0 / bframes=15 / b_pyramid=2 / b_adapt=2 / b_bias=0 / direct=3 / weightb=1 / open_gop=0 / weightp=2 / keyint=240 / keyint_min=23 / scenecut=40 / intra_refresh=0 / rc_lookahead=60 / rc=crf / mbtree=0 / crf=20.2 / qcomp=0.65 / qpmin=0 / qpmax=69 / qpstep=4 / vbv_maxrate=50000 / vbv_bufsize=62500 / crf_max=0.0 / nal_hrd=none / filler=0 / ip_ratio=1.40 / pb_ratio=1.30 / aq=3:1.00 / zones=147393,156263,q=32
Default : Yes
Forced : No

Audio #1
ID : 2
Format : AC-3
Format/Info : Audio Coding 3
Commercial name : Dolby Digital
Codec ID : A_AC3
Duration : 1 h 44 min
Bit rate mode : Constant
Bit rate : 384 kb/s
Channel(s) : 6 channels
Channel layout : L R C LFE Ls Rs
Sampling rate : 48.0 kHz
Frame rate : 31.250 FPS (1536 SPF)
Compression mode : Lossy
Stream size : 286 MiB (13%)
Language : Russian
Service kind : Complete Main
Default : Yes
Forced : No

Audio #2
ID : 3
Format : AC-3
Format/Info : Audio Coding 3
Commercial name : Dolby Digital
Codec ID : A_AC3
Duration : 1 h 48 min
Bit rate mode : Constant
Bit rate : 448 kb/s
Channel(s) : 6 channels
Channel layout : L R C LFE Ls Rs
Sampling rate : 48.0 kHz
Frame rate : 31.250 FPS (1536 SPF)
Compression mode : Lossy
Stream size : 348 MiB (15%)
Language : English
Service kind : Complete Main
Default : No
Forced : No

Text #1
ID : 4
Format : UTF-8
Codec ID : S_TEXT/UTF8
Codec ID/Info : UTF-8 Plain Text
Duration : 1 h 41 min
Bit rate : 2 b/s
Count of elements : 33
Stream size : 2.24 KiB (0%)
Title : Forced
Language : Russian
Default : Yes
Forced : No

Text #2
ID : 5
Format : UTF-8
Codec ID : S_TEXT/UTF8
Codec ID/Info : UTF-8 Plain Text
Duration : 1 h 45 min
Bit rate : 74 b/s
Count of elements : 1877
Stream size : 57.6 KiB (0%)
Language : English
Default : No
Forced : No

Text #3
ID : 6
Format : UTF-8
Codec ID : S_TEXT/UTF8
Codec ID/Info : UTF-8 Plain Text
Duration : 1 h 47 min
Bit rate : 73 b/s
Count of elements : 1906
Stream size : 57.8 KiB (0%)
Title : SDH
Language : English
Default : No
Forced : No



Скачать Безупречный через торрент http://i6-imageban-ru.translate.goog/out/2017/09/18/2ff75c0c358795c5946784cc1680714d.png Скачать, смотреть онлайн Безупречный бесплантно в хорошем качестве Описание: Фрэнк - умный, сильный и харизматичный директор престижной школы в богатом пригороде Нью-Йорка. Его выпускники с легкостью ... 7.8 10 4
Info! Золотая раздача, скачанное не засчитывается.
Торрент: Зарегистрирован [2020-04-28 06:24] · скачан: 340 раз
Статус: √ проверено
Размер: 2.19 GB
Как cкачать? Как скачать Безупречный через торрент | UTorrent

% Раздел Тема Автор DL S | L
Фильмы 2019-2020 [DVDrip, WEB-DLRip, HDrip] (DUB, MVO) [ 1.41 GB ] Безупречный / Bad Education | MVO | BDRip Twi7ter Скачать
3 | 0
Фильмы 2019-2020 [DVDrip, WEB-DLRip, HDrip] (DUB, MVO) [ 748 MB ] Безупречный / Bad Education | MVO | DLRip bober100 Скачать
2 | 0
Фильмы 2019-2020 [DVDrip, WEB-DLRip, HDrip] (DUB, MVO) [ 1.46 GB ] Безупречный / Bad Education | MVO | BDRip bober100 Скачать
1 | 0
Фильмы 2019-2020 [DVDrip, WEB-DLRip, HDrip] (DUB, MVO) [ 3.02 GB ] Безупречный / Bad Education | MVO | DLRip-AVC Mr. Grab Скачать
1 | 0
Фильмы 2019-2020 [DVDrip, WEB-DLRip, HDrip] (DUB, MVO) [ 741 MB ] Безупречный / Bad Education | MVO | DLRip-AVC sokol_ok Скачать
2 | 0
Фильмы (WEB-DL 720p, 1080p) [ 4.79 GB ] Безупречный / Bad Education | MVO | 720p bober100 Скачать
2 | 0
Фильмы (WEB-DL 720p, 1080p) [ 7.77 GB ] Безупречный / Bad Education | MVO | 1080p sokol_ok Скачать
2 | 0

28-11-2019 20:33  


Отключить вcю реклaмy на сайте, в т.ч. и в плеере онлайн просмотра!

    Дорогой пользователь! Огромная просьба, поблагодарите релизера, оцените раздачу и оставьте свои комментарий, если Вы скачали Безупречный через торрент бесплатно!!
    Комментировать посты могут только пользователи прошедшие не сложную регистрацию
    Показать сообщения:    


    Безупречный через торрент
    Скачать бесплатно Безупречный
    Безупречный скачать торрент
    Безупречный смотреть онлайн
    Cкачать фильм Безупречный бесплатно
    Безупречный скачать торрент в хорошем качестве
    Безупречный смотреть онлайн бесплатно в хорошем качестве
    Вы не можете начинать темы
    Вы не можете отвечать на сообщения
    Вы не можете редактировать свои сообщения
    Вы не можете удалять свои сообщения
    Вы не можете голосовать в опросах
    Вы не можете прикреплять файлы к сообщениям
    Вы можете скачивать файлы
    Безупречный / Bad Education [2019, драма, комедия, WEB-DLRip-AVC] MVO [Новамедиа] смотреть онлайн, скачать торрент picoco.icu