1 сезон

1 сезон

iTunes

1

КиноПоиск HD

Кинопоиск HD

iTunes

13

1 сезон

RePack

30

Новинка

ВАЖНО

ИГРА 18+

pack

RePack

MK11
pack

Легкие деньги

RePack

jed

RePack

fifa19

RePack

RDR2

RePack

NEED FOR SPEED™ PAYBACK

4 сезон

9 сезон

Бесстыжие 9 сезон

Все сериалы

все сериалы на PB.wtf

RePack

FAR CRY 5
  
Magnet ссылка

Письмо / The Letter (Уильям Уайлер) [1940, фильм-нуар, драма, мелодрама, криминал, детектив, BDRip-AVC by msltel] MVO piratbit.org

Письмо через торрент piratbit.org

Размер: 1.95 GB | Добавлен: 11 мес. назад | Торрент скачан:1 раз
Скачать  

28-04-2020 06:27 Письмо Скачать торрент  

Название: Письмо
Оригинальное название: The Letter
Год выпуска: 1940
Страна: США
Жанр: фильм-нуар, драма, мелодрама, криминал
Продолжительность: 01:35:09
Перевод: профессиональный многоголосый
Режиссер: Уильям Уайлер
В ролях: Бетт Дэвис, Херберт Маршалл, Джеймс Стефенсон, Фрида Инескорт, Гейл Сондергаард, Брюс Лестер, Элизабет Инглис, Сесил Келлэуэй, Виктор Сен Юнг, Дорис Ллойд, Уилли Фанг, Тецу Комай, Бойд Ирвин

О фильме: Лесли Кросби, супруга каучукового плантатора, стреляет в друга их семьи Дэвида Ньюэлла. Позже на вопросы следователя она отвечает, что убитый пытался напасть на неё, и она убила его в порядке самообороны. Роберт Кросби, преданный и любящий муж, верит каждому её слову и просит Ховарда Джойса, уважаемого юриста, защищать его супругу. Джойс узнаёт, что миссис Хэммонд, вдова Ньюэлла, имеет в своем распоряжении письмо, написанное Лесли к Ньюэллу. В нём она просит приехать к ней на плантацию как раз в день убийства. Когда эту информацию адвокат сообщает Лесли, та хладнокровно признаётся, что убила Ньюзлла, и что он был её любовником. Пожалев женщину, защитник соглашается выкупить компрометирующее письмо за 10 тысяч долларов. Вскоре супруг узнаёт, что все его сбережения были потрачены на покупку письма и требует, чтобы ему сообщили его содержание. Лесли во всем признаётся, и Роберт прощает её, но вдова убитого не может простить смерти мужа... Экранизация одноимённой пьесы Сомерсета Моэма.



Качество: BDRip-AVC
Формат: MKV
Видео: MPEG-4 AVC, 2547 Кбит/с, 790x576, 23.976 кадр/с
Аудио 1: русский, AC3, 192 kbps, 2 ch, 48 kHz [закадровый многоголосый, Selena International]
Аудио 2: английский, AC3, 192 kbps, 2 ch, 48 kHz [оригинал]
Субтитры: английские
Главы/чаптеры
Общее
Уникальный идентификатор : 246395020662785499423258836967952296382 (0xB95DF470AC02D206B27618AA02A529BE)
Полное имя : D:\Video\Письмо.1940.BDRip-AVC by msltel.mkv
Формат : Matroska
Версия формата : Version 4
Размер файла : 1,95 Гбайт
Продолжительность : 1 ч. 35 м.
Общий поток : 2 933 Кбит/сек
Название фильма : Rip by msltel
Дата кодирования : UTC 2020-04-27 16:24:52
Программа кодирования : mkvmerge v8.2.0 ('World of Adventure') 64bit
Библиотека кодирования : libebml v1.3.1 + libmatroska v1.4.2

Видео
Идентификатор : 1
Формат : AVC
Формат/Информация : Advanced Video Codec
Профиль формата : High@L4.1
Настройки формата : CABAC / 16 Ref Frames
Параметр CABAC формата : Да
Параметр RefFrames формата : 16 кадров
Идентификатор кодека : V_MPEG4/ISO/AVC
Продолжительность : 1 ч. 35 м.
Битрейт : 2 547 Кбит/сек
Ширина : 790 пикселей
Высота : 576 пикселей
Соотношение сторон : 1,372
Режим частоты кадров : Постоянный
Частота кадров : 23,976 (24000/1001) кадра/сек
Цветовое пространство : YUV
Субдискретизация насыщенности : 4:2:0
Битовая глубина : 8 бит
Тип развёртки : Прогрессивная
Бит/(Пиксели*Кадры) : 0.233
Размер потока : 1,69 Гбайт (87%)
Библиотека кодирования : x264 core 159 r2991 1771b55
Настройки программы : cabac=1 / ref=16 / deblock=1:-2:-2 / analyse=0x3:0x113 / me=umh / subme=11 / psy=1 / psy_rd=1.00:0.15 / mixed_ref=1 / me_range=32 / chroma_me=1 / trellis=2 / 8x8dct=1 / cqm=0 / deadzone=21,11 / fast_pskip=0 / chroma_qp_offset=-3 / threads=6 / lookahead_threads=1 / sliced_threads=0 / nr=0 / decimate=1 / interlaced=0 / bluray_compat=0 / constrained_intra=0 / bframes=11 / b_pyramid=2 / b_adapt=2 / b_bias=0 / direct=1 / weightb=1 / open_gop=0 / weightp=2 / keyint=230 / keyint_min=23 / scenecut=40 / intra_refresh=0 / rc_lookahead=40 / rc=crf / mbtree=1 / crf=19.0 / qcomp=0.60 / qpmin=0 / qpmax=69 / qpstep=4 / vbv_maxrate=50000 / vbv_bufsize=62500 / crf_max=0.0 / nal_hrd=none / filler=0 / ip_ratio=1.40 / aq=1:1.00
Язык : English
Default : Да
Forced : Нет

Аудио #1
Идентификатор : 2
Формат : AC-3
Формат/Информация : Audio Coding 3
Коммерческое название : Dolby Digital
Идентификатор кодека : A_AC3
Продолжительность : 1 ч. 35 м.
Вид битрейта : Постоянный
Битрейт : 192 Кбит/сек
Каналы : 2 канала
Channel layout : L R
Частота : 48,0 КГц
Частота кадров : 31,250 кадров/сек (1536 SPF)
Метод сжатия : С потерями
Размер потока : 131 Мбайт (7%)
Заголовок : MVO Selena International
Язык : Russian
Service kind : Complete Main
Default : Да
Forced : Нет

Аудио #2
Идентификатор : 3
Формат : AC-3
Формат/Информация : Audio Coding 3
Коммерческое название : Dolby Digital
Идентификатор кодека : A_AC3
Продолжительность : 1 ч. 35 м.
Вид битрейта : Постоянный
Битрейт : 192 Кбит/сек
Каналы : 2 канала
Channel layout : L R
Частота : 48,0 КГц
Частота кадров : 31,250 кадров/сек (1536 SPF)
Метод сжатия : С потерями
Размер потока : 131 Мбайт (7%)
Заголовок : original
Язык : English
Service kind : Complete Main
Default : Нет
Forced : Нет

Текст
Идентификатор : 4
Формат : UTF-8
Идентификатор кодека : S_TEXT/UTF8
Идентификатор кодека/Информация : UTF-8 Plain Text
Продолжительность : 1 ч. 33 м.
Битрейт : 72 бит/сек
Count of elements : 1580
Размер потока : 49,1 Кбайт (0%)
Заголовок : английские
Язык : English
Default : Нет
Forced : Нет

Меню
00:00:00.000 : en:Chapter 1
00:00:59.226 : en:Chapter 2
00:05:15.690 : en:Chapter 3
00:11:00.785 : en:Chapter 4
00:15:53.870 : en:Chapter 5
00:18:46.876 : en:Chapter 6
00:24:34.640 : en:Chapter 7
00:30:42.549 : en:Chapter 8
00:38:32.519 : en:Chapter 9
00:42:28.671 : en:Chapter 10
00:45:49.246 : en:Chapter 11
00:48:46.090 : en:Chapter 12
00:53:26.161 : en:Chapter 13
00:57:40.791 : en:Chapter 14
01:03:44.446 : en:Chapter 15
01:08:40.325 : en:Chapter 16
01:12:44.694 : en:Chapter 17
01:16:29.210 : en:Chapter 18
01:19:46.448 : en:Chapter 19
01:22:06.672 : en:Chapter 20
01:26:01.323 : en:Chapter 21
01:29:40.500 : en:Chapter 22
01:34:38.423 : en:Chapter 23
piratbit.org



Скачать Письмо через торрент https://b.radikal.ru/b31/2004/9e/5e8377de4e4d.jpg Скачать фильм Письмо через торрент бесплантно в хорошем качестве О фильме: Лесли Кросби, супруга каучукового плантатора, стреляет в друга их семьи Дэвида Ньюэлла. Позже на вопросы следователя она ... 10 10 2
Info! Золотая раздача, скачанное не засчитывается.
Торрент: Зарегистрирован [2020-04-28 06:27] · скачан: 1 раз
Статус: √ проверено
Размер: 1.95 GB
Как cкачать? Как скачать Письмо через торрент | UTorrent

% Раздел Тема Автор DL S | L
Арт-хаус и авторское кино [ 9.99 GB ] Письмо / The Letter [1940 фильм-нуар BDRip 1080p by msltel] MVO msltel Скачать
1 | 0
Арт-хаус и авторское кино [ 3.53 GB ] Письмо / The Letter [1940 фильм-нуар BDRip 720p by msltel] MVO msltel Скачать
1 | 0
Зарубежные сериалы [ 14.61 GB ] Письмо королю / The Letter for the King / Сезон: 1 / Серии: 1-6 из 6 [2020 WEBRip 1080p] MVO [TVShows] bober100 Скачать
1 | 0
Зарубежные сериалы [ 7.72 GB ] Письмо королю / The Letter for the King / Сезон: 1 / Серии: 1-6 из 6 [2020 WEBRip 720p] MVO [TVShows] bober100 Скачать
1 | 0
Фильмы [HD 720p, 1080p] (Хороший звук DUB, MVO) [ 4.06 GB ] Кремлёвское письмо / The Kremlin Letter [1970 BDRip 720p b y msltel] MVO msltel Скачать
1 | 0
Фильмы [HD 720p, 1080p] (Хороший звук DUB, MVO) [ 12.09 GB ] Кремлёвское письмо / The Kremlin Letter [1970 BDRip 1080p b y msltel] MVO msltel Скачать
1 | 0

28-11-2019 20:33  

Отключить всю рекламу на сайте

    Дорогой пользователь! Огромная просьба, поблагодарите релизера, оцените раздачу и оставьте свои комментарий, если Вы скачали Письмо через торрент бесплатно! Внесите свою лепту в развитие PiratBit!
    Комментировать посты могут только пользователи прошедшие не сложную регистрацию
    Показать сообщения:    

    Письмо через торрент
    Скачать бесплатно Письмо
    Письмо скачать торрент
    Письмо смотреть онлайн
    Cкачать фильм Письмо бесплатно
    Письмо скачать торрент в хорошем качестве
    Письмо смотреть онлайн бесплатно в хорошем качестве


    Вы не можете начинать темы
    Вы не можете отвечать на сообщения
    Вы не можете редактировать свои сообщения
    Вы не можете удалять свои сообщения
    Вы не можете голосовать в опросах
    Вы не можете прикреплять файлы к сообщениям
    Вы можете скачивать файлы