Доктор Стрэндж

Лицензия

Добыча

Дубляж

Уэнсдэй

1 сезон

Тор

Дубляж

В эфире

Дубляж

Там, где раки поют

MVO

Властелин колец

1 сезон

Deluxe

pack

Рекомендуем

30

Пиратка

ВАЖНО

ВАЖНО

Ghostwire

Пиратка

jed

RePack

nioh2

RePack

RDR2

RePack

NEED FOR SPEED™ PAYBACK

RePack

скачать торрент

Кинопоиск HD

Острые козырьки 6 сезон

6 сезон

FAR CRY 6

RePack

скачать торрент

Лицензия

скачать торрент

MVO

1

1 сезон

скачать торрент

1 сезон

скачать торрент

Лицензия

  

Британский психопат / Отмщение / Avengement (Джесси Джонсон) [2019, боевик, триллер, криминал, BDRip-AVC] Дубляж [iTunes]

Британский психопат через торрент piratbit.org

Раздают: 1 [ 0 KB/s ]
Размер: 745 MB | Добавлен: 2 года 7 мес. назад | Торрент скачан:155 раз
Смотреть онлайн | Скачать   

28-04-2020 10:53 Британский психопат Скачать торрент  

Британский психопат / Отмщение
Avengement

«He's Out On Bad Behavior»

Страна: Великобритания
Жанр: боевик, триллер, криминал
Год выпуска: 2019
Продолжительность: 01:27:45

Перевод: Профессиональный (полное дублирование) [Akimbo Productions | iTunes]
Субтитры: русские (полные)
Оригинальная аудиодорожка: нет

Режиссер: Джесси Джонсон / Jesse Johnson

В ролях: Скотт Эдкинс, Крэйг Фэйрбрасс, Томас Тургус, Ник Моран, Кирстон Вэрэйнг, Лео Грегори, Бо Фаулер, Луис Мэндилор, Теренс Мэйнард, Росс О’Хеннесси

Описание: Кэйн Берджесс, поддавшись влиянию старшего брата, идет на преступление и горит на первом же деле, став причиной смерти невинного человека. Следующие семь лет ему предстоит провести в самой суровой тюрьме Англии. Раньше он просто был готов постоять за себя, но ежедневные бои за жизнь сделали из него зверя. Все время заключения он мечтал о мести. Ему удается выбраться из тюрьмы, и теперь он может отомстить тем, кто сделал из него хладнокровного убийцу.



Релиз:

Автор рипа: stalkerok
Русские субтитры: Наталья Раевская aka Enigma

Сэмпл

Качество видео: BDRip-AVC | Исходник: Avengement 2019 Uncut 1080p GER Blu-ray AVC DTS-HD MA 5.1
Формат видео: MKV
Видео кодек: AVC
Аудио кодек: AAC
Видео: AVC, 1073 Кбит/сек, 960x410 (2.35:1), 23,976 кадр/сек
Аудио: AAC, 112 Кбит/сек, 48 КГц, 2.0 - русский
Навигация по главам: есть
---[Information] [28.04.2020 13:40:24] x264 [info]: frame I:1195 Avg QP:15.23 size: 45557
---[Information] [28.04.2020 13:40:24] x264 [info]: frame P:29497 Avg QP:19.43 size: 12015
---[Information] [28.04.2020 13:40:24] x264 [info]: frame B:95508 Avg QP:21.05 size: 3109
---[Information] [28.04.2020 13:40:24] x264 [info]: consecutive B-frames: 3.5% 4.5% 11.4% 20.2% 15.0% 23.2% 9.5% 8.5% 1.7% 0.6% 0.5% 0.2% 0.3% 0.3% 0.6%

General
Unique ID : 268362155960931086298558014179861827098 (0xC9E4ABD474561F894D68FAD991738E1A)
Complete name : C:\temp\Avengement\Avengement.2019.BDRip.x264.745Mb.Rus.stalkerok.New-Team.mkv
Format : Matroska
Format version : Version 4
File size : 745 MiB
Duration : 1 h 27 min
Overall bit rate : 1 187 kb/s
Movie name : Avengement (2019) | Rip by stalkerok
Encoded date : UTC 2020-04-28 10:45:34
Writing application : mkvmerge v44.0.0 ('Domino') 64-bit
Writing library : libebml v1.3.10 + libmatroska v1.5.2
Attachments : front.jpg

Video
ID : 1
Format : AVC
Format/Info : Advanced Video Codec
Format profile : High@L4.1
Format settings : CABAC / 12 Ref Frames
Format settings, CABAC : Yes
Format settings, Reference frames : 12 frames
Codec ID : V_MPEG4/ISO/AVC
Duration : 1 h 27 min
Bit rate : 1 073 kb/s
Width : 960 pixels
Height : 410 pixels
Display aspect ratio : 2.35:1
Frame rate mode : Constant
Frame rate : 23.976 FPS
Color space : YUV
Chroma subsampling : 4:2:0
Bit depth : 8 bits
Scan type : Progressive
Bits/(Pixel*Frame) : 0.114
Stream size : 673 MiB (90%)
Title : Avengement (2019) | Rip by stalkerok
Writing library : x264 core 160 r3000 33f9e14
Encoding settings : cabac=1 / ref=12 / deblock=1:-2:-2 / analyse=0x3:0x133 / me=umh / subme=10 / psy=1 / psy_rd=1.00:0.00 / mixed_ref=1 / me_range=32 / chroma_me=1 / trellis=2 / 8x8dct=1 / cqm=0 / deadzone=21,11 / fast_pskip=0 / chroma_qp_offset=-2 / threads=12 / lookahead_threads=3 / sliced_threads=0 / nr=0 / decimate=0 / interlaced=0 / bluray_compat=0 / constrained_intra=0 / bframes=14 / b_pyramid=2 / b_adapt=2 / b_bias=0 / direct=3 / weightb=1 / open_gop=0 / weightp=2 / keyint=240 / keyint_min=23 / scenecut=40 / intra_refresh=0 / rc_lookahead=60 / rc=2pass / mbtree=0 / bitrate=1073 / ratetol=1.0 / qcomp=0.65 / qpmin=0 / qpmax=69 / qpstep=4 / cplxblur=20.0 / qblur=0.5 / vbv_maxrate=50000 / vbv_bufsize=62500 / nal_hrd=none / filler=0 / ip_ratio=1.40 / pb_ratio=1.30 / aq=3:1.00
Default : Yes
Forced : No

Audio
ID : 2
Format : AAC LC
Format/Info : Advanced Audio Codec Low Complexity
Codec ID : A_AAC-2
Duration : 1 h 27 min
Bit rate : 112 kb/s
Channel(s) : 2 channels
Channel layout : L R
Sampling rate : 48.0 kHz
Frame rate : 46.875 FPS (1024 SPF)
Compression mode : Lossy
Delay relative to video : 9 ms
Stream size : 70.3 MiB (9%)
Language : Russian
Default : Yes
Forced : No

Text
ID : 3
Format : UTF-8
Codec ID : S_TEXT/UTF8
Codec ID/Info : UTF-8 Plain Text
Duration : 1 h 26 min
Bit rate : 98 b/s
Count of elements : 1117
Stream size : 62.1 KiB (0%)
Title : Full (Enigma)
Language : Russian
Default : No
Forced : No

Menu
00:00:00.000 : :Chapter 1
00:03:16.190 : :Chapter 2
00:10:55.850 : :Chapter 3
00:22:37.480 : :Chapter 4
00:32:40.190 : :Chapter 5
00:40:08.720 : :Chapter 6
00:52:10.280 : :Chapter 7
00:57:15.570 : :Chapter 8
01:00:47.880 : :Chapter 9
01:12:39.200 : :Chapter 10
01:16:56.950 : :Chapter 11
01:23:22.820 : :Chapter 12



Скачать Британский психопат через торрент http://i6-imageban-ru.translate.goog/out/2017/09/18/2ff75c0c358795c5946784cc1680714d.png Скачать, смотреть онлайн Британский психопат бесплантно в хорошем качестве Описание: Кэйн Берджесс, поддавшись влиянию старшего брата, идет на преступление и горит на первом же деле, став причиной смерти невинного ... 7.8 10 4
Info! Золотая раздача, скачанное не засчитывается.
Торрент: Зарегистрирован [2020-04-28 10:53] · скачан: 155 раз
Статус: √ проверено
Размер: 745 MB
Как cкачать? Как скачать Британский психопат через торрент | UTorrent

% Раздел Тема Автор DL S | L
Ultra HD (UHD: 2K, 4K, 8K) [ 42.93 GB ] Британский психопат / Отмщение / Avengement | iTunes | 2160p, (Полная версия bober100 Скачать
3 | 0
Фильмы [HD 720p, 1080p] (Хороший звук DUB, MVO) [ 8.31 GB ] Британский психопат / Отмщение / Avengement | iTunes | 1080p, (Полная версия bober100 Скачать
3 | 0
Фильмы 2019-2020 [DVDrip, WEB-DLRip, HDrip] (DUB, MVO) [ 2.07 GB ] Британский психопат / Отмщение / Avengement | iTunes | BDRip-AVC sokol_ok Скачать
3 | 0
Фильмы 2019-2020 [DVDrip, WEB-DLRip, HDrip] (DUB, MVO) [ 2.86 GB ] Британский психопат / Отмщение / Avengement | iTunes | BDRip-AVC, (Полная версия bober100 Скачать
1 | 0
Фильмы 2019-2020 [DVDrip, WEB-DLRip, HDrip] (DUB, MVO) [ 1.46 GB ] Британский психопат / Отмщение / Avengement | iTunes | BDRip, (Полная версия bober100 Скачать
1 | 0
Фильмы 2019-2020 [DVDrip, WEB-DLRip, HDrip] (DUB, MVO) [ 1.46 GB ] Британский психопат / Отмщение / Avengement | MVO | BDRip-AVC Enigma2010 Скачать
3 | 0
Фильмы 2019-2020 [DVDrip, WEB-DLRip, HDrip] (DUB, MVO) [ 742 MB ] Британский психопат / Отмщение / Avengement | iTunes | HDRip, (Полная версия bober100 Скачать
2 | 0

28-11-2019 20:33  


Отключить вcю реклaмy на сайте, в т.ч. и в плеере онлайн просмотра!

    Дорогой пользователь! Огромная просьба, поблагодарите релизера, оцените раздачу и оставьте свои комментарий, если Вы скачали Британский психопат через торрент бесплатно!!
    Комментировать посты могут только пользователи прошедшие не сложную регистрацию
    Показать сообщения:    


    Британский психопат через торрент
    Скачать бесплатно Британский психопат
    Британский психопат скачать торрент
    Британский психопат смотреть онлайн
    Cкачать фильм Британский психопат бесплатно
    Британский психопат скачать торрент в хорошем качестве
    Британский психопат смотреть онлайн бесплатно в хорошем качестве
    Вы не можете начинать темы
    Вы не можете отвечать на сообщения
    Вы не можете редактировать свои сообщения
    Вы не можете удалять свои сообщения
    Вы не можете голосовать в опросах
    Вы не можете прикреплять файлы к сообщениям
    Вы можете скачивать файлы
    Британский психопат / Отмщение / Avengement [2019, боевик, триллер, криминал, BDRip-AVC] Дубляж [iTunes] смотреть онлайн, скачать торрент picoco.icu