1 сезон

1 сезон

iTunes

1

КиноПоиск HD

Кинопоиск HD

iTunes

13

1 сезон

RePack

30

Новинка

ВАЖНО

ИГРА 18+

pack

RePack

MK11
pack

Легкие деньги

RePack

jed

RePack

fifa19

RePack

RDR2

RePack

NEED FOR SPEED™ PAYBACK

4 сезон

9 сезон

Бесстыжие 9 сезон

Все сериалы

все сериалы на PB.wtf

RePack

FAR CRY 5
  
Magnet ссылка

Сладкая милашка / Sweet sugar (Мишель Левески) [1972, Боевик, драма, BDRip-AVC, Любительский (Алексей Багичев)] от ExKinoRay piratbit.org

Сладкая милашка через торрент piratbit.org

Размер: 2.34 GB | Добавлен: 11 мес. назад | Торрент скачан:8 раз
Скачать  

29-04-2020 06:33 Сладкая милашка Скачать торрент  

Сладкая милашка / Sweet sugar
Год выпуска: 1972
Страна: США
Жанр: Боевик, драма
Продолжительность: 01:26:18
Перевод: Любительский (Алексей Багичев)
Субтитры: Английские

Режиссер: Мишель Левески

Премьера в мире: 9 июня 1972

rating

В ролях: Филлис Дэвис, Эллараино, Тимоти Браун, Памела Коллинз, Клифф Осмонд, Энгус Дункан, Жаклин Жиру, Альберт Коул, Джеймс Хотон

Описание: Проститутка по прозвищу Милашка подставлена коррумпированным политиком, пользовавшимся ее услугами. Чтобы избежать длительного тюремного заключения, она вынуждена стать участницей жестоких медицинских экспериментов, проводимых в лагере доктором-садистом Джоном…

Качество: BDRip-AVC
Формат: MKV
Видео кодек: MPEG4
Аудио кодек: AC3
Видео: 3500 Кбит/с, 1024x552, 23.976 кадра/сек
Аудио#1: Русский (AC3, 2 ch, 192 Кбит/с, 48 КГц)
Аудио#2: Английский (AC3, 1 ch, 192 Кбит/с, 48 КГц)
Релиз от:
x264 [info]: profile High, level 4.1
x264 [info]: frame I:839 Avg QP:18.46 size: 80903
x264 [info]: frame P:27107 Avg QP:21.32 size: 32503
x264 [info]: frame B:96191 Avg QP:22.52 size: 13681
-----
Общее
Уникальный идентификатор : 174072596865311999866613696483513468065 (0x82F529A565C1066E8471541EC56204A1)
Полное имя : D:\ExKinoRay\Sweet.sugar.1972.BDRip-AVC.ExKinoRay.mkv
Формат : Matroska
Версия формата : Version 2
Размер файла : 2,34 Гбайт
Продолжительность : 1 ч. 26 м.
Общий поток : 3886 Кбит/сек
Дата кодирования : UTC 2020-04-29 04:56:43
Программа кодирования : mkvmerge v7.8.0 ('River Man') 32bit built on Apr 3 2015 12:11:22
Библиотека кодирования : libebml v1.3.1 + libmatroska v1.4.2

Видео
Идентификатор : 1
Формат : AVC
Формат/Информация : Advanced Video Codec
Профиль формата : High@L4.1
Настройки формата : CABAC / 12 Ref Frames
Параметр CABAC формата : Да
Параметр RefFrames формата : 12 кадров
Идентификатор кодека : V_MPEG4/ISO/AVC
Продолжительность : 1 ч. 26 м.
Битрейт : 3500 Кбит/сек
Ширина : 1024 пикселя
Высота : 552 пикселя
Соотношение сторон : 1,85:1
Режим частоты кадров : Постоянный
Частота кадров : 23,976 (24000/1001) кадра/сек
Цветовое пространство : YUV
Субдискретизация насыщенности : 4:2:0
Битовая глубина : 8 бит
Тип развёртки : Прогрессивная
Бит/(Пиксели*Кадры) : 0.258
Размер потока : 2,06 Гбайт (88%)
Библиотека кодирования : x264 core 152 r2851 ba24899
Настройки программы : cabac=1 / ref=12 / deblock=1:-3:-2 / analyse=0x3:0x113 / me=umh / subme=10 / psy=1 / psy_rd=1.00:0.10 / mixed_ref=1 / me_range=32 / chroma_me=1 / trellis=2 / 8x8dct=1 / cqm=0 / deadzone=21,11 / fast_pskip=0 / chroma_qp_offset=-3 / threads=6 / lookahead_threads=1 / sliced_threads=0 / nr=0 / decimate=0 / interlaced=0 / bluray_compat=0 / constrained_intra=0 / bframes=12 / b_pyramid=2 / b_adapt=2 / b_bias=0 / direct=3 / weightb=1 / open_gop=0 / weightp=2 / keyint=240 / keyint_min=23 / scenecut=40 / intra_refresh=0 / rc=2pass / mbtree=0 / bitrate=3500 / ratetol=1.0 / qcomp=0.60 / qpmin=0 / qpmax=69 / qpstep=4 / cplxblur=20.0 / qblur=0.5 / ip_ratio=1.40 / pb_ratio=1.30 / aq=3:1.00
Default : Да
Forced : Нет
Цветовой диапазон : Limited
Основные цвета : BT.709
Характеристики трансфера : BT.709
Коэффициенты матрицы : BT.709

Аудио #1
Идентификатор : 2
Формат : AC-3
Формат/Информация : Audio Coding 3
Коммерческое название : Dolby Digital
Идентификатор кодека : A_AC3
Продолжительность : 1 ч. 26 м.
Вид битрейта : Постоянный
Битрейт : 192 Кбит/сек
Каналы : 2 канала
Channel layout : L R
Частота : 48,0 КГц
Частота кадров : 31,250 кадров/сек (1536 SPF)
Битовая глубина : 16 бит
Метод сжатия : С потерями
Размер потока : 119 Мбайт (5%)
Заголовок : Алексей Багичев
Язык : Russian
ServiceKind/String : Complete Main
Default : Да
Forced : Нет

Аудио #2
Идентификатор : 3
Формат : AC-3
Формат/Информация : Audio Coding 3
Коммерческое название : Dolby Digital
Идентификатор кодека : A_AC3
Продолжительность : 1 ч. 26 м.
Вид битрейта : Постоянный
Битрейт : 192 Кбит/сек
Каналы : 1 канал
Channel layout : C
Частота : 48,0 КГц
Частота кадров : 31,250 кадров/сек (1536 SPF)
Битовая глубина : 16 бит
Метод сжатия : С потерями
Размер потока : 119 Мбайт (5%)
Язык : English
ServiceKind/String : Complete Main
Default : Нет
Forced : Нет

Текст
Идентификатор : 4
Формат : UTF-8
Идентификатор кодека : S_TEXT/UTF8
Идентификатор кодека/Информация : UTF-8 Plain Text
Язык : English
Default : Нет
Forced : Нет

Меню
00:00:00.000 : en:Chapter 01
00:20:12.211 : en:Chapter 02
00:39:39.377 : en:Chapter 03
00:57:33.450 : en:Chapter 04
01:16:10.566 : en:Chapter 05

piratbit.org



Скачать Сладкая милашка через торрент http://b.radikal.ru/b42/2004/c4/349169795472.jpg Скачать фильм Сладкая милашка через торрент бесплантно в хорошем качестве Описание: Проститутка по прозвищу Милашка подставлена коррумпированным политиком, пользовавшимся ее услугами. Чтобы избежать длительного ... 5 10 1
Торрент: Зарегистрирован [2020-04-29 06:33] · скачан: 8 раз
Статус: √ проверено
Размер: 2.34 GB
Как cкачать? Как скачать Сладкая милашка через торрент | UTorrent

28-11-2019 20:33  

Отключить всю рекламу на сайте

    Дорогой пользователь! Огромная просьба, поблагодарите релизера, оцените раздачу и оставьте свои комментарий, если Вы скачали Сладкая милашка через торрент бесплатно! Внесите свою лепту в развитие PiratBit!
    Комментировать посты могут только пользователи прошедшие не сложную регистрацию
    Показать сообщения:    

    Сладкая милашка через торрент
    Скачать бесплатно Сладкая милашка
    Сладкая милашка скачать торрент
    Сладкая милашка смотреть онлайн
    Cкачать фильм Сладкая милашка бесплатно
    Сладкая милашка скачать торрент в хорошем качестве
    Сладкая милашка смотреть онлайн бесплатно в хорошем качестве


    Вы не можете начинать темы
    Вы не можете отвечать на сообщения
    Вы не можете редактировать свои сообщения
    Вы не можете удалять свои сообщения
    Вы не можете голосовать в опросах
    Вы не можете прикреплять файлы к сообщениям
    Вы можете скачивать файлы