Ссылка на приватное зеркало нашего сайта всего за 1$. Внимание количество ограничено!!!

2 сезон

iTunes

1 сезон

1

iTunes

iTunes

iTunes

1 сезон

RePack

30

ИГРА 18+

pack

ВАЖНО

!!Акция!!

Alien_RageХит недели

RePack

MK11
pack

Забери бонус

RePack

jed

!!Акция!!

Alien_Rage

RePack

fifa19

RePack

Assassins Creed: Odyssey

RePack

NEED FOR SPEED™ PAYBACK

4 сезон

9 сезон

Бесстыжие 9 сезон

Все сериалы

все сериалы на PB.wtf

RePack

FAR CRY 5
  

Кузен, кузина / Cousin cousine (Жан-Шарль Таккелла) [1975, мелодрама, комедия, BDRip-AVC by msltel] MVO piratbit.org

Кузен, кузина через торрент piratbit.org

Размер: 1.98 GB | Добавлен: 5 мес. 27 д. назад | Торрент скачан:6 раз
Скачать  

29-04-2020 06:34 Кузен, кузина Скачать торрент  

Название: Кузен, кузина
Оригинальное название: Cousin cousine
Год выпуска: 1975
Страна: Франция
Жанр: мелодрама, комедия
Продолжительность: 01:35:45
Перевод: профессиональный многоголосый
Режиссер: Жан-Шарль Таккелла
В ролях: Мари-Франс Пизье, Виктор Лану, Мари-Кристин Барро, Ги Маршан, Жинетт Гарсен, Сибил Маас, Попек, Пьер Плесси, Катрин Верлор, Юбер Жиню, Франсуаза Кайло, Катрин Дай, Карин Деламар, Мэйти Деламар, Ален Дуте, Пьер Форгет

О фильме: История любви кузена и кузины, познакомившихся на свадьбе бабушки. Она замужем и работает в конторе секретаршей, а он преподает танцы, и у него есть 16-летняя дочь от первого брака. Муж кузины, изменяющий жене направо и налево, увидев, что его благоверная способна пробудить в других большую любовь, решает порвать со всеми своими любовницами, но - уже поздно...



Качество: BDRip-AVC
Формат: MKV
Видео: MPEG-4 AVC, 2575 Кбит/с, 768x576, 24 кадр/с
Аудио 1: русский, AC3, 192 kbps, 2 ch, 48 kHz [закадровый многоголосый]
Аудио 2: французский, AC3, 192 kbps, 1 ch, 48 kHz [оригинал]
Субтитры 1: русские
Субтитры 2: французские
Субтитры 3: английские
Главы/чаптеры
Общее
Уникальный идентификатор : 170791900280259345406145744817319755909 (0x807D52D0F3B88B5A9034A9CEC16AC085)
Полное имя : D:\Video\Кузен, кузина.1975.BDRip-AVC by msltel.mkv
Формат : Matroska
Версия формата : Version 4
Размер файла : 1,98 Гбайт
Продолжительность : 1 ч. 35 м.
Общий поток : 2 962 Кбит/сек
Название фильма : Rip by msltel
Дата кодирования : UTC 2020-04-29 01:45:28
Программа кодирования : mkvmerge v8.2.0 ('World of Adventure') 64bit
Библиотека кодирования : libebml v1.3.1 + libmatroska v1.4.2

Видео
Идентификатор : 1
Формат : AVC
Формат/Информация : Advanced Video Codec
Профиль формата : High@L4.1
Настройки формата : CABAC / 16 Ref Frames
Параметр CABAC формата : Да
Параметр RefFrames формата : 16 кадров
Идентификатор кодека : V_MPEG4/ISO/AVC
Продолжительность : 1 ч. 35 м.
Битрейт : 2 575 Кбит/сек
Ширина : 768 пикселей
Высота : 576 пикселей
Соотношение сторон : 4:3
Режим частоты кадров : Постоянный
Частота кадров : 24,000 кадра/сек
Цветовое пространство : YUV
Субдискретизация насыщенности : 4:2:0
Битовая глубина : 8 бит
Тип развёртки : Прогрессивная
Бит/(Пиксели*Кадры) : 0.243
Размер потока : 1,72 Гбайт (87%)
Библиотека кодирования : x264 core 159 r2991 1771b55
Настройки программы : cabac=1 / ref=16 / deblock=1:-2:-2 / analyse=0x3:0x113 / me=umh / subme=11 / psy=1 / psy_rd=1.00:0.15 / mixed_ref=1 / me_range=32 / chroma_me=1 / trellis=2 / 8x8dct=1 / cqm=0 / deadzone=21,11 / fast_pskip=0 / chroma_qp_offset=-3 / threads=6 / lookahead_threads=1 / sliced_threads=0 / nr=0 / decimate=1 / interlaced=0 / bluray_compat=0 / constrained_intra=0 / bframes=10 / b_pyramid=2 / b_adapt=2 / b_bias=0 / direct=1 / weightb=1 / open_gop=0 / weightp=2 / keyint=230 / keyint_min=23 / scenecut=40 / intra_refresh=0 / rc_lookahead=40 / rc=crf / mbtree=1 / crf=18.2 / qcomp=0.60 / qpmin=0 / qpmax=69 / qpstep=4 / vbv_maxrate=50000 / vbv_bufsize=62500 / crf_max=0.0 / nal_hrd=none / filler=0 / ip_ratio=1.40 / aq=1:1.00
Язык : French
Default : Да
Forced : Нет

Аудио #1
Идентификатор : 2
Формат : AC-3
Формат/Информация : Audio Coding 3
Коммерческое название : Dolby Digital
Идентификатор кодека : A_AC3
Продолжительность : 1 ч. 35 м.
Вид битрейта : Постоянный
Битрейт : 192 Кбит/сек
Каналы : 2 канала
Channel layout : L R
Частота : 48,0 КГц
Частота кадров : 31,250 кадров/сек (1536 SPF)
Метод сжатия : С потерями
Размер потока : 131 Мбайт (6%)
Заголовок : MVO
Язык : Russian
Service kind : Complete Main
Default : Да
Forced : Нет

Аудио #2
Идентификатор : 3
Формат : AC-3
Формат/Информация : Audio Coding 3
Коммерческое название : Dolby Digital
Идентификатор кодека : A_AC3
Продолжительность : 1 ч. 35 м.
Вид битрейта : Постоянный
Битрейт : 192 Кбит/сек
Каналы : 1 канал
Channel layout : C
Частота : 48,0 КГц
Частота кадров : 31,250 кадров/сек (1536 SPF)
Метод сжатия : С потерями
Размер потока : 131 Мбайт (6%)
Заголовок : original
Язык : French
Service kind : Complete Main
Default : Нет
Forced : Нет

Текст #1
Идентификатор : 4
Формат : UTF-8
Идентификатор кодека : S_TEXT/UTF8
Идентификатор кодека/Информация : UTF-8 Plain Text
Продолжительность : 1 ч. 33 м.
Битрейт : 78 бит/сек
Count of elements : 932
Размер потока : 53,4 Кбайт (0%)
Заголовок : русские
Язык : Russian
Default : Нет
Forced : Нет

Текст #2
Идентификатор : 5
Формат : UTF-8
Идентификатор кодека : S_TEXT/UTF8
Идентификатор кодека/Информация : UTF-8 Plain Text
Продолжительность : 1 ч. 35 м.
Битрейт : 46 бит/сек
Count of elements : 1055
Размер потока : 32,5 Кбайт (0%)
Заголовок : французские
Язык : French
Default : Нет
Forced : Нет

Текст #3
Идентификатор : 6
Формат : UTF-8
Идентификатор кодека : S_TEXT/UTF8
Идентификатор кодека/Информация : UTF-8 Plain Text
Продолжительность : 1 ч. 33 м.
Битрейт : 42 бит/сек
Count of elements : 901
Размер потока : 29,3 Кбайт (0%)
Заголовок : английские
Язык : English
Default : Нет
Forced : Нет

Меню
00:00:00.000 : :Chapter 1
00:11:34.208 : :Chapter 2
00:16:04.125 : :Chapter 3
00:22:27.791 : :Chapter 4
00:27:29.791 : :Chapter 5
00:32:44.041 : :Chapter 6
00:42:59.250 : :Chapter 7
00:54:56.625 : :Chapter 8
01:00:59.958 : :Chapter 9
01:10:48.750 : :Chapter 10
01:16:38.500 : :Chapter 11
01:25:39.791 : :Chapter 12
piratbit.org



Скачать Кузен, кузина через торрент https://c.radikal.ru/c18/2004/d3/c9ddff16d626.jpg Скачать фильм Кузен, кузина через торрент бесплантно в хорошем качестве О фильме: История любви кузена и кузины, познакомившихся на свадьбе бабушки. Она замужем и работает в конторе секретаршей, а он преподает ... 5 10 1
Торрент: Зарегистрирован [2020-04-29 06:34] · скачан: 6 раз
Статус: √ проверено
Размер: 1.98 GB
Как cкачать? Как скачать Кузен, кузина через торрент | qTorrent

28-11-2019 20:33  

Отключить всю рекламу на сайте

    Дорогой пользователь! Огромная просьба, поблагодарите релизера, оцените раздачу и оставьте свои комментарий, если Вы скачали Кузен, кузина через торрент бесплатно! Внесите свою лепту в развитие PiratBit!
    Комментировать посты могут только пользователи прошедшие не сложную регистрацию
    Показать сообщения:    

    Кузен, кузина через торрент
    Скачать бесплатно Кузен, кузина
    Кузен, кузина скачать торрент
    Кузен, кузина смотреть онлайн
    Cкачать фильм Кузен, кузина бесплатно
    Кузен, кузина скачать торрент в хорошем качестве
    Кузен, кузина смотреть онлайн бесплатно в хорошем качестве


    Вы не можете начинать темы
    Вы не можете отвечать на сообщения
    Вы не можете редактировать свои сообщения
    Вы не можете удалять свои сообщения
    Вы не можете голосовать в опросах
    Вы не можете прикреплять файлы к сообщениям
    Вы можете скачивать файлы