Достать ножи: Стеклянная луковица

MVO

Добыча

Дубляж

Уэнсдэй

1 сезон

Тор

Дубляж

13 клиническая

1 сезон

Жестокая ночь

MVO

Одни из нас

1 сезон

Deluxe

pack

Рекомендуем

30

Пиратка

ВАЖНО

ВАЖНО

Ghostwire

Пиратка

jed

RePack

nioh2

RePack

RDR2

RePack

NEED FOR SPEED™ PAYBACK

RePack

скачать торрент

Кинопоиск HD

Острые козырьки 6 сезон

6 сезон

FAR CRY 6

RePack

скачать торрент

Лицензия

скачать торрент

MVO

1

1 сезон

скачать торрент

1 сезон

скачать торрент

Лицензия

  

Королевская битва / Batoru rowaiaru (Киндзи Фукасаку, Кента Фукасаку) [2000, фантастика, триллер, драма, BDRip 720p / 60 FPS] [Режиссёрская версия / Director's Cut] AVO [А.Гаврилов]

Королевская битва через торрент piratbit.org

Раздают: 3 [ 0 KB/s ]
Размер: 3.79 GB | Добавлен: 5 д. назад | Торрент скачан:22 раза
Смотреть онлайн | Скачать | Поддержите нас   

01-05-2020 02:00 Королевская битва Скачать торрент  

Королевская битва / Batoru rowaiaru
Режиссёрская версия / Director's Cut
Год выпуска: 2000
Страна: Япония
Жанр: фантастика, триллер, драма
Продолжительность: 02:01:56
Перевод: Авторский (одноголосый) - Андрей Гаврилов
Субтитры: русские, английские

Режиссер: Киндзи Фукасаку, Кента Фукасаку

В ролях: Такеши Китано, Ко Шибасаки, Таро Ямамото, Аки Маэда, Татсуя Фудживара, Чиаки Курияма, Масанобу Андо, Сонни Чиба, Аи Ивамура, Аи Маэда, Аяна Сакаи, Масуми Туёка, Митсуру Мурата, Нацуки Като, Рики Такеючи, Такаши Цукамото

Описание: Такого ещё не было. Но будет! Очень скоро! Родители лишатся работы, а дети, выйдя из-под контроля, учинят террор и массовый бойкот взрослым. Ответная мера: «Королевская битва» - санкционированная правительством жестокая игра, в которой под дулами армейских автоматов заставят участвовать неуправляемых школьников. На необитаемом острове 42 подростка будут три дня безжалостно уничтожать друг друга, чтобы выжить самому. Только одному игроку разрешено вернуться на большую землю живым. Невозмутимый распорядитель зловещей игры - школьный учитель Китано. Кровь льётся рекой, но учитель Китано гарантирует не только соблюдение условий игры, но и её условность. Юные герои гибнут, точь-в-точь как в компьютерной «стрелялке». Вот только мораль фильма не виртуальная, из безумного электронного будущего она обращена в сегодняшний день... Фильм снят по одноимённому роману Таками Коусюн.

Качество: BDRip 720p / 60 FPS
Формат: MKV
Видео кодек: H.264
Аудио кодек: AC3
Видео: x264, 1152x648, 4000kbps, 59,940 fps, ( 0.100 bpp)
Аудио#1: русский, AC3, 448 kbps, 6 ch, 48 kHz [авторский, Андрей Гаврилов]
скриншот   скриншот   скриншот   скриншот  
Общее
Уникальный идентификатор : 243239120069066519759164324594819169711 (0xB6FE268715E5E41EA603AD26D7EA7DAF)
Полное имя : Z:\На заливку\Королевская битва (Режиссёрская версия)(2000) BDRip.720p.(60Fps).mkv
Формат : Matroska
Версия формата : Version 4
Размер файла : 3,78 Гбайт
Продолжительность : 2 ч. 1 м.
Общий поток : 4 442 Кбит/сек
Название фильма : Королевская битва (Режиссёрская версия)(2000) BDRip.720p.(60Fps)
Дата кодирования : UTC 2020-04-30 18:35:51
Программа кодирования : mkvmerge v7.2.0 ('On Every Street') 64bit built on Sep 13 2014 15:52:10
Библиотека кодирования : libebml v1.3.0 + libmatroska v1.4.1
Обложка : Yes
Attachments : Cover.jpg

Видео
Идентификатор : 1
Формат : AVC
Формат/Информация : Advanced Video Codec
Профиль формата : High@L4.1
Настройки формата : CABAC / 4 Ref Frames
Параметр CABAC формата : Да
Параметр RefFrames формата : 4 кадра
Идентификатор кодека : V_MPEG4/ISO/AVC
Продолжительность : 2 ч. 1 м.
Битрейт : 4 000 Кбит/сек
Ширина : 1 152 пикселя
Высота : 648 пикселей
Соотношение сторон : 16:9
Режим частоты кадров : Постоянный
Частота кадров : 59,940 кадров/сек
Цветовое пространство : YUV
Субдискретизация насыщенности : 4:2:0
Битовая глубина : 8 бит
Тип развёртки : Прогрессивная
Бит/(Пиксели*Кадры) : 0.089
Размер потока : 3,40 Гбайт (90%)
Библиотека кодирования : x264 core 148 r2638 7599210
Настройки программы : cabac=1 / ref=3 / deblock=1:0:0 / analyse=0x3:0x113 / me=umh / subme=9 / psy=1 / psy_rd=1.00:0.10 / mixed_ref=1 / me_range=32 / chroma_me=1 / trellis=2 / 8x8dct=1 / cqm=0 / deadzone=21,11 / fast_pskip=0 / chroma_qp_offset=-3 / threads=6 / lookahead_threads=1 / sliced_threads=0 / nr=0 / decimate=1 / interlaced=0 / bluray_compat=0 / constrained_intra=0 / bframes=16 / b_pyramid=2 / b_adapt=2 / b_bias=0 / direct=3 / weightb=1 / open_gop=0 / weightp=2 / keyint=250 / keyint_min=25 / scenecut=40 / intra_refresh=0 / rc_lookahead=40 / rc=2pass / mbtree=1 / bitrate=4000 / ratetol=1.0 / qcomp=0.60 / qpmin=0 / qpmax=69 / qpstep=4 / cplxblur=20.0 / qblur=0.5 / vbv_maxrate=14000 / vbv_bufsize=14000 / nal_hrd=none / filler=0 / ip_ratio=1.40 / aq=1:1.00
Язык : English
Default : Да
Forced : Нет

Аудио
Идентификатор : 2
Формат : AC-3
Формат/Информация : Audio Coding 3
Коммерческое название : Dolby Digital
Идентификатор кодека : A_AC3
Продолжительность : 2 ч. 1 м.
Вид битрейта : Постоянный
Битрейт : 448 Кбит/сек
Каналы : 6 каналов
Channel layout : L R C LFE Ls Rs
Частота : 48,0 КГц
Частота кадров : 31,250 кадров/сек (1536 SPF)
Метод сжатия : С потерями
Размер потока : 390 Мбайт (10%)
Заголовок : AVO (Gavrilov)
Язык : Russian
Service kind : Complete Main
Default : Нет
Forced : Нет

Текст #1
Идентификатор : 3
Формат : UTF-8
Идентификатор кодека : S_TEXT/UTF8
Идентификатор кодека/Информация : UTF-8 Plain Text
Продолжительность : 2 ч. 0 м.
Битрейт : 64 бит/сек
Count of elements : 1057
Размер потока : 57,0 Кбайт (0%)
Язык : Russian
Default : Нет
Forced : Нет

Текст #2
Идентификатор : 4
Формат : UTF-8
Идентификатор кодека : S_TEXT/UTF8
Идентификатор кодека/Информация : UTF-8 Plain Text
Продолжительность : 1 ч. 57 м.
Битрейт : 36 бит/сек
Count of elements : 1031
Размер потока : 31,3 Кбайт (0%)
Язык : English
Default : Нет
Forced : Нет

Меню
00:00:00.000 : en:Regular Guy
00:08:47.109 : en:Be Honest
00:23:56.268 : en:Awesome
00:34:18.681 : en:Time to Engage
00:44:41.178 : en:Pop Quiz
00:57:35.410 : en:Back
01:08:37.363 : en:Here Kitty
01:19:25.761 : en:Kick-Ass
01:28:07.156 : en:Passing a Message
01:35:31.600 : en:Have Potential
01:43:18.192 : en:Daddy and Marcus
01:49:47.872 : en:Red Mist



Скачать Королевская битва через торрент https://pic1.kartinco.top/images/12/vnotv.jpg Скачать, смотреть онлайн Королевская битва бесплантно в хорошем качестве Описание: Такого ещё не было. Но будет! Очень скоро! Родители лишатся работы, а дети, выйдя из-под контроля, учинят террор и массовый ... 10 10 2
Торрент: Зарегистрирован [2023-01-23 09:56] · скачан: 22 раз
Статус: ! неоформлено
Размер: 3.79 GB
Как cкачать? Как скачать Королевская битва через торрент | UTorrent

% Раздел Тема Автор DL S | L
Ultra HD (UHD: 2K, 4K, 8K) [ 75.24 GB ] Королевская битва / Battle Royale / Batoru rowaiaru | DUB+AVO | 2160p, (Dolby Vision Profile 8 bober100 Скачать
1 | 0
Азиатские фильмы [ 17.71 GB ] Королевская битва | DUB | 1080p msltel Скачать
3 | 0
Азиатские фильмы [ 6.18 GB ] Королевская битва | DUB | 720p msltel Скачать
1 | 0



Последний раз редактировалось: alien2015 (2020-05-01 11:09), всего редактировалось 8 раз(а)

28-11-2019 20:33  


Отключить вcю реклaмy на сайте, в т.ч. и в плеере онлайн просмотра!

    Дорогой пользователь! Огромная просьба, поблагодарите релизера, оцените раздачу и оставьте свои комментарий, если Вы скачали Королевская битва через торрент бесплатно!!
    Комментировать посты могут только пользователи прошедшие не сложную регистрацию
    Показать сообщения:    


    Королевская битва через торрент
    Скачать бесплатно Королевская битва
    Королевская битва скачать торрент
    Королевская битва смотреть онлайн
    Cкачать фильм Королевская битва бесплатно
    Королевская битва скачать торрент в хорошем качестве
    Королевская битва смотреть онлайн бесплатно в хорошем качестве
    Вы не можете начинать темы
    Вы не можете отвечать на сообщения
    Вы не можете редактировать свои сообщения
    Вы не можете удалять свои сообщения
    Вы не можете голосовать в опросах
    Вы не можете прикреплять файлы к сообщениям
    Вы можете скачивать файлы
    Королевская битва / Batoru rowaiaru [2000, фантастика, триллер, драма, BDRip 720p / 60 FPS] [Режиссёрская версия / Director's Cut] AVO [А.Гаврилов] смотреть онлайн, скачать торрент picoco.icu