Достать ножи: Стеклянная луковица

MVO

Добыча

Дубляж

Уэнсдэй

1 сезон

Тор

Дубляж

13 клиническая

1 сезон

Жестокая ночь

MVO

Одни из нас

1 сезон

Deluxe

pack

Рекомендуем

30

Пиратка

ВАЖНО

ВАЖНО

Ghostwire

Пиратка

jed

RePack

nioh2

RePack

RDR2

RePack

NEED FOR SPEED™ PAYBACK

RePack

скачать торрент

Кинопоиск HD

Острые козырьки 6 сезон

6 сезон

FAR CRY 6

RePack

скачать торрент

Лицензия

скачать торрент

MVO

1

1 сезон

скачать торрент

1 сезон

скачать торрент

Лицензия

  

47 ронинов / 47 Ronin (Карл Ринш) [2013, Фэнтези, боевик, приключения, UHD BDRemux 2160p] Дубляж [Лицензия] +AVO [Гаврилов]

47 ронинов через торрент piratbit.org

Размер: 52.25 GB | Добавлен: 2 года 9 мес. назад | Торрент скачан:114 раз
Смотреть онлайн | Скачать | Поддержите нас   

02-05-2020 18:25 47 ронинов Скачать торрент  

47 ронинов | 47 Ronin
Год выпуска: 2013
Страна: США, Великобритания, Япония, Венгрия
Студия: H2F Entertainment, Mid Atlantic Films, Stuber Productions
Жанр: Фэнтези, боевик, приключения
Продолжительность: 01:58:36
Перевод:
#1: Дублированный | Лицензия
#2: Авторский | Гаврилов
Субтитры: Русские (Forced, full), украинские (Full), английские

Режиссер: Карл Ринш

rating

В ролях: Киану Ривз, Ринко Кикути, Кэри-Хироюки Тагава, Хироюки Санада, Таданобу Асано, Того Игава, Йорик ван Вагенинген, Ко Сибасаки, Рик Жене, Харука Абе, Джин Аканиши

Описание: Вдохновленный одним из самых известных сказаний Японии, фильм «47 ронинов» (47 Ronin) рассказывает эпическую историю героических приключений. После того как коварный военачальник убивает их хозяина и изгоняет их, 47 преданных ронинов, храбрых воинов-самураев, клянутся отомстить и восстановить попранную честь. Изгнанные из своих жилищ и рассеянные по всей стране, они вынуждены принять помощь Кая (Киану Ривз), пришельца-полукровки. Этот отвергнутый всеми изгой теперь превращается в героя, и вместе с самураями герой картины «47 ронинов» преодолевает невероятные испытания, способные принести погибель обычным воинам.

Качество: UHD BDRemux 2160p
Формат: MKV

Видео: 3840x2160 at 23.976 fps, MPEG-H HEVC HDR Video, 51700 kbps avg
Аудио #01: 48 kHz, DTS, 5.1, 768 Kbps | Дублированный | RUS |
Аудио #02: 48 kHz, AC3, 5.1, 448 Kbps | Дублированный | RUS |
Аудио #03: 48 kHz, DTS-HD MA, 5.1, 3549 Kbps | Авторский | RUS |
Аудио #04: 48 kHz, DTS-HD MA, 7.1, 6543 Kbps | Оригинал | ENG |
скриншот  скриншот  скриншот  скриншот  скриншот  

General
Unique ID : 234704504919567997402940684265198903425 (0xB09271835D635A7F4BF107564022E081)
Complete name : E:Video11147.Ronin.2013.BDREMUX.2160p.HDR.seleZen.mkv
Format : Matroska
Format version : Version 4
File size : 52.2 GiB
Duration : 1 h 58 min
Overall bit rate mode : Variable
Overall bit rate : 63.1 Mb/s
Movie name : 47 Ronin 2013 from селезень
Encoded date : UTC 2020-05-02 17:59:35
Writing application : mkvmerge v40.0.0 ('Old Town Road + Pony') 64-bit
Writing library : libebml v1.3.9 + libmatroska v1.5.2

Video
ID : 1
Format : HEVC
Format/Info : High Efficiency Video Coding
Format profile : Main 10@L5.1@High
HDR format : SMPTE ST 2086, HDR10 compatible
Codec ID : V_MPEGH/ISO/HEVC
Duration : 1 h 58 min
Bit rate : 51.7 Mb/s
Width : 3 840 pixels
Height : 2 160 pixels
Display aspect ratio : 16:9
Frame rate mode : Constant
Frame rate : 23.976 (24000/1001) FPS
Color space : YUV
Chroma subsampling : 4:2:0 (Type 2)
Bit depth : 10 bits
Bits/(Pixel*Frame) : 0.260
Stream size : 42.9 GiB (82%)
Writing library : ATEME Titan File 3.9.0 (4.9.0.0)
Language : English
Default : Yes
Forced : No
Color range : Limited
Color primaries : BT.2020
Transfer characteristics : PQ
Matrix coefficients : BT.2020 non-constant
Mastering display color pri : Display P3
Mastering display luminance : min: 0.0050 cd/m2, max: 1000 cd/m2
Maximum Content Light Level : 728 cd/m2
Maximum Frame-Average Light : 279 cd/m2

Audio #1
ID : 2
Format : DTS
Format/Info : Digital Theater Systems
Codec ID : A_DTS
Duration : 1 h 58 min
Bit rate mode : Constant
Bit rate : 768 kb/s
Channel(s) : 6 channels
Channel layout : C L R Ls Rs LFE
Sampling rate : 48.0 kHz
Frame rate : 93.750 FPS (512 SPF)
Bit depth : 24 bits
Compression mode : Lossy
Stream size : 651 MiB (1%)
Title : Дубляж [License]
Language : Russian
Default : Yes
Forced : Yes

Audio #2
ID : 3
Format : AC-3
Format/Info : Audio Coding 3
Commercial name : Dolby Digital
Codec ID : A_AC3
Duration : 1 h 58 min
Bit rate mode : Constant
Bit rate : 448 kb/s
Channel(s) : 6 channels
Channel layout : L R C LFE Ls Rs
Sampling rate : 48.0 kHz
Frame rate : 31.250 FPS (1536 SPF)
Compression mode : Lossy
Stream size : 380 MiB (1%)
Title : Дубляж [License]
Language : Russian
Service kind : Complete Main
Default : No
Forced : No

Audio #3
ID : 4
Format : DTS XLL
Format/Info : Digital Theater Systems
Commercial name : DTS-HD Master Audio
Codec ID : A_DTS
Duration : 1 h 58 min
Bit rate mode : Variable
Bit rate : 3 549 kb/s
Channel(s) : 6 channels
Channel layout : C L R Ls Rs LFE
Sampling rate : 48.0 kHz
Frame rate : 93.750 FPS (512 SPF)
Bit depth : 24 bits
Compression mode : Lossless
Stream size : 2.94 GiB (6%)
Title : AVO [Gavrilov]
Language : Russian
Default : No
Forced : No

Audio #4
ID : 5
Format : DTS XLL X
Format/Info : Digital Theater Systems
Commercial name : DTS-HD Master Audio
Codec ID : A_DTS
Duration : 1 h 58 min
Bit rate mode : Variable
Bit rate : 6 543 kb/s
Channel(s) : 8 channels
Channel(s)_Original : Object Based
ChannelLayout_Original : Object Based
Sampling rate : 48.0 kHz
Frame rate : 93.750 FPS (512 SPF)
Bit depth : 24 bits
Stream size : 5.42 GiB (10%)
Title : Original
Language : English
Default : No
Forced : No

Text #1
ID : 6
Format : UTF-8
Codec ID : S_TEXT/UTF8
Codec ID/Info : UTF-8 Plain Text
Duration : 1 h 47 min
Bit rate : 0 b/s
Count of elements : 4
Stream size : 290 Bytes (0%)
Title : Forced
Language : Russian
Default : Yes
Forced : Yes

Text #2
ID : 7
Format : UTF-8
Codec ID : S_TEXT/UTF8
Codec ID/Info : UTF-8 Plain Text
Duration : 1 h 47 min
Bit rate : 42 b/s
Count of elements : 669
Stream size : 33.3 KiB (0%)
Title : Full
Language : Russian
Default : No
Forced : No

Text #3
ID : 8
Format : UTF-8
Codec ID : S_TEXT/UTF8
Codec ID/Info : UTF-8 Plain Text
Duration : 1 h 47 min
Bit rate : 41 b/s
Count of elements : 668
Stream size : 32.6 KiB (0%)
Title : Full
Language : Ukrainian
Default : No
Forced : No

Text #4
ID : 9
Format : UTF-8
Codec ID : S_TEXT/UTF8
Codec ID/Info : UTF-8 Plain Text
Duration : 1 h 47 min
Bit rate : 23 b/s
Count of elements : 680
Stream size : 18.6 KiB (0%)
Title : Full
Language : English
Default : No
Forced : No

Text #5
ID : 10
Format : UTF-8
Codec ID : S_TEXT/UTF8
Codec ID/Info : UTF-8 Plain Text
Duration : 1 h 47 min
Bit rate : 25 b/s
Count of elements : 742
Stream size : 19.8 KiB (0%)
Title : SDH
Language : English
Default : No
Forced : No

Text #6
ID : 11
Format : UTF-8
Codec ID : S_TEXT/UTF8
Codec ID/Info : UTF-8 Plain Text
Duration : 1 h 47 min
Bit rate : 29 b/s
Count of elements : 742
Stream size : 23.0 KiB (0%)
Title : SDH Colored
Language : English
Default : No
Forced : No

Menu
00:00:00.000 : en:
00:04:27.559 : en:
00:11:12.088 : en:
00:16:27.820 : en:
00:20:11.836 : en:
00:26:52.319 : en:
00:31:02.944 : en:
00:36:10.627 : en:
00:43:36.614 : en:
00:50:14.511 : en:
00:54:59.421 : en:
00:59:54.049 : en:
01:09:57.735 : en:
01:13:59.018 : en:
01:19:12.247 : en:
01:24:17.386 : en:
01:33:00.825 : en:
01:38:55.555 : en:
01:44:41.609 : en:
01:48:38.303 : en:




Скачать 47 ронинов через торрент https://img12.lostpic.net/2020/05/02/31100667a1f974eb68482b290503b4dc.jpg Скачать, смотреть онлайн 47 ронинов бесплантно в хорошем качестве Описание: Вдохновленный одним из самых известных сказаний Японии, фильм «47 ронинов» (47 Ronin) рассказывает эпическую историю героических ... 9.8 10 6
Торрент: Зарегистрирован [2020-05-02 18:25] · скачан: 114 раз
Статус: √ проверено
Размер: 52.25 GB
Как cкачать? Как скачать 47 ронинов через торрент | UTorrent

% Раздел Тема Автор DL S | L
Фильмы (HD 720p, 1080p) (48-60 fps) [ 4.87 GB ] 47 ронинов / 47 Ronin | Дубляж | DLRip 720p / 60 FPS slaventi-69 Скачать
3 | 0
Ultra HD (UHD: 2K, 4K, 8K) [ 57.4 GB ] 47 ронинов / 47 Ronin | Лицензия | 2160p bober100 Скачать
1 | 0
Ultra HD (UHD: 2K, 4K, 8K) [ 33.3 GB ] 47 ронинов / 47 Ronin | Лицензия | 2160p, (SDR bober100 Скачать
1 | 0
Ultra HD (UHD: 2K, 4K, 8K) [ 25.14 GB ] 47 ронинов / 47 Ronin | Лицензия | 2160p bober100 Скачать
2 | 1
Фильмы (Blu-ray, BD-Remux, HDDVD) [ 41.42 GB ] 47 ронинов / 47 Ronin | Дубляж | Blu-ray, Дубляж Бумер Скачать
1 | 0
3D Фильмы [ 9.96 GB ] 47 ронинов 3D / 47 Ronin 3D | DUB Half OverUnder | BDRip1080 GEKADOL Скачать
1 | 0
Фильмы [HD 720p, 1080p] (Хороший звук DUB, MVO) [ 13.87 GB ] 47 ронинов / 47 Ronin | Лицензия | 1080p, DUB, Лицензия Seedtank Скачать
1 | 0

28-11-2019 20:33  


Отключить вcю реклaмy на сайте, в т.ч. и в плеере онлайн просмотра!

    Дорогой пользователь! Огромная просьба, поблагодарите релизера, оцените раздачу и оставьте свои комментарий, если Вы скачали 47 ронинов через торрент бесплатно!!
    Комментировать посты могут только пользователи прошедшие не сложную регистрацию
    Показать сообщения:    


    47 ронинов через торрент
    Скачать бесплатно 47 ронинов
    47 ронинов скачать торрент
    47 ронинов смотреть онлайн
    Cкачать фильм 47 ронинов бесплатно
    47 ронинов скачать торрент в хорошем качестве
    47 ронинов смотреть онлайн бесплатно в хорошем качестве
    Вы не можете начинать темы
    Вы не можете отвечать на сообщения
    Вы не можете редактировать свои сообщения
    Вы не можете удалять свои сообщения
    Вы не можете голосовать в опросах
    Вы не можете прикреплять файлы к сообщениям
    Вы можете скачивать файлы
    47 ронинов / 47 Ronin [2013, Фэнтези, боевик, приключения, UHD BDRemux 2160p] Дубляж [Лицензия] +AVO [Гаврилов] смотреть онлайн, скачать торрент picoco.icu