Доктор Стрэндж

Лицензия

Добыча

Дубляж

Уэнсдэй

1 сезон

Тор

Дубляж

В эфире

Дубляж

Там, где раки поют

MVO

Властелин колец

1 сезон

Deluxe

pack

Рекомендуем

30

Пиратка

ВАЖНО

ВАЖНО

Ghostwire

Пиратка

jed

RePack

nioh2

RePack

RDR2

RePack

NEED FOR SPEED™ PAYBACK

RePack

скачать торрент

Кинопоиск HD

Острые козырьки 6 сезон

6 сезон

FAR CRY 6

RePack

скачать торрент

Лицензия

скачать торрент

MVO

1

1 сезон

скачать торрент

1 сезон

скачать торрент

Лицензия

  

Остров фантазий / Fantasy Island (Джефф Уодлоу) [2020, Ужасы, фантастика, BDRip-AVC, (Расширенная версия)] Дубляж [iTunes]

Остров фантазий через торрент piratbit.org

Размер: 2.85 GB | Добавлен: 2 года 7 мес. назад | Торрент скачан:155 раз
Смотреть онлайн | Скачать   

04-05-2020 04:11 Остров фантазий Скачать торрент  

Остров фантазий | Fantasy Island
Год выпуска: 2020
Страна: США
Студия: Columbia Pictures, Blumhouse Productions
Жанр: Ужасы, фантастика
Продолжительность: 01:49:24
Перевод: Дублированный | iTunes
Субтитры: Русские (Forced, full), украинские (Full), английские

Режиссер: Джефф Уодлоу

rating

В ролях: Майкл Пенья, Мэгги Кью, Люси Хейл, Остин Стоуэлл, Портия Даблдэй, Джимми О. Ян, Райан Хансен, Майкл Рукер, Шарлотта МакКинни, Ким Коутс

Описание: Загадочный мистер Рорк воплощает в жизнь самые смелые и тайные мечты своих постояльцев на роскошном труднодоступном тропическом курорте. Но будут ли готовы гости разгадать тайну острова и спасти свои жизни, когда их фантазии обернутся кошмаром?

Качество: BDRip-AVC | Расширенная версия
Формат: MKV

Видео: 1024x428 (2.40:1), 23.976 fps, MPEG-4 AVC ~ 2895 Kbps avg, 0.276 bit/pixel
Аудио#1: AC3, 48 kHz, 6 ch, ~384.00 kbps avg | русский | iTunes
Аудио#2: AC3, 48 kHz, 6 ch, ~448.00 kbps avg | английский | Оригинал
скриншот  скриншот  скриншот  скриншот  скриншот  

x264vfw [info]: frame I:1532 Avg QP:15.07 size: 85392
x264vfw [info]: frame P:39856 Avg QP:17.77 size: 29843
x264vfw [info]: frame B:115981 Avg QP:19.38 size: 9098

Общее
Уникальный идентификатор : 22169311064485695388766844298143978109 (0x10ADA76CB617E43B34DC274661D7D27D)
Полное имя : Fantasy.Island.2020.Unrated.BDRip.2.85Gb.x264.mkv
Формат : Matroska
Версия формата : Version 4
Размер файла : 2, 85 Гбайт
Продолжительность : 1 ч. 49 м.
Общий поток : 3730 Кбит/сек
Название фильма : Остров фантазий / Fantasy Island (2020)
Дата кодирования : UTC 2020-05-04 03:09:01
Программа кодирования : mkvmerge v46.0.0 ('No Deeper Escape') 64-bit
Библиотека кодирования : libebml v1.3.10 + libmatroska v1.5.2
Обложка : Yes
Attachments : cover.jpg

Видео
Идентификатор : 1
Формат : AVC
Формат/Информация : Advanced Video Codec
Профиль формата : High@L4.1
Настройки формата : CABAC / 10 Ref Frames
Параметр CABAC формата : Да
Параметр RefFrames формата : 10 кадров
Идентификатор кодека : V_MPEG4/ISO/AVC
Продолжительность : 1 ч. 49 м.
Битрейт : 2895 Кбит/сек
Ширина : 1024 пикселя
Высота : 428 пикселей
Соотношение сторон : 2, 40:1
Режим частоты кадров : Постоянный
Частота кадров : 23, 976 (24000/1001) кадра/сек
Цветовое пространство : YUV
Субдискретизация насыщенности : 4:2:0
Битовая глубина : 8 бит
Тип развёртки : Прогрессивная
Бит/(Пиксели*Кадры) : 0.276
Размер потока : 2, 21 Гбайт (78%)
Заголовок : #stillet
Библиотека кодирования : x264 core 152 r2851bm ba24899
Настройки программы : cabac=1 / ref=10 / deblock=1:-3:-3 / analyse=0x3:0x113 / me=umh / subme=11 / psy=1 / psy_rd=1.00:0.15 / mixed_ref=1 / me_range=32 / chroma_me=1 / trellis=2 / 8x8dct=1 / cqm=0 / deadzone=21, 11 / fast_pskip=0 / chroma_qp_offset=-3 / threads=8 / lookahead_threads=3 / sliced_threads=0 / nr=0 / decimate=0 / interlaced=0 / bluray_compat=0 / constrained_intra=0 / bframes=11 / b_pyramid=2 / b_adapt=2 / b_bias=0 / direct=3 / weightb=1 / open_gop=0 / weightp=2 / keyint=240 / keyint_min=23 / scenecut=40 / intra_refresh=0 / rc=2pass / mbtree=0 / bitrate=2895 / ratetol=1.0 / qcomp=0.60 / qpmin=0 / qpmax=69 / qpstep=4 / cplxblur=20.0 / qblur=0.5 / ip_ratio=1.40 / pb_ratio=1.30 / aq=1:1.00
Язык : English
Default : Да
Forced : Нет

Аудио #1
Идентификатор : 2
Формат : AC-3
Формат/Информация : Audio Coding 3
Коммерческое название : Dolby Digital
Идентификатор кодека : A_AC3
Продолжительность : 1 ч. 49 м.
Вид битрейта : Постоянный
Битрейт : 384 Кбит/сек
Каналы : 6 каналов
ChannelLayout : L R C LFE Ls Rs
Частота : 48, 0 КГц
Частота кадров : 31, 250 кадров/сек (1536 SPF)
Метод сжатия : С потерями
Размер потока : 300 Мбайт (10%)
Заголовок : iTunes
Язык : Russian
Default : Да
Forced : Да

Аудио #2
Идентификатор : 3
Формат : AC-3
Формат/Информация : Audio Coding 3
Коммерческое название : Dolby Digital
Идентификатор кодека : A_AC3
Продолжительность : 1 ч. 49 м.
Вид битрейта : Постоянный
Битрейт : 448 Кбит/сек
Каналы : 6 каналов
ChannelLayout : L R C LFE Ls Rs
Частота : 48, 0 КГц
Частота кадров : 31, 250 кадров/сек (1536 SPF)
Метод сжатия : С потерями
Размер потока : 351 Мбайт (12%)
Язык : English
Default : Нет
Forced : Нет

Текст #1
Идентификатор : 4
Формат : UTF-8
Идентификатор кодека : S_TEXT/UTF8
Идентификатор кодека/Информация : UTF-8 Plain Text
Продолжительность : 1 ч. 46 м.
Битрейт : 0 бит/сек
ElementCount : 3
Размер потока : 129 байт (0%)
Заголовок : Forced
Язык : Russian
Default : Да
Forced : Да

Текст #2
Идентификатор : 5
Формат : UTF-8
Идентификатор кодека : S_TEXT/UTF8
Идентификатор кодека/Информация : UTF-8 Plain Text
Продолжительность : 1 ч. 48 м.
Битрейт : 96 бит/сек
ElementCount : 1409
Размер потока : 76, 3 Кбайт (0%)
Заголовок : Full
Язык : Russian
Default : Нет
Forced : Нет

Текст #3
Идентификатор : 6
Формат : UTF-8
Идентификатор кодека : S_TEXT/UTF8
Идентификатор кодека/Информация : UTF-8 Plain Text
Продолжительность : 1 ч. 48 м.
Битрейт : 88 бит/сек
ElementCount : 1407
Размер потока : 70, 5 Кбайт (0%)
Заголовок : Full
Язык : Ukrainian
Default : Нет
Forced : Нет

Текст #4
Идентификатор : 7
Формат : UTF-8
Идентификатор кодека : S_TEXT/UTF8
Идентификатор кодека/Информация : UTF-8 Plain Text
Продолжительность : 1 ч. 46 м.
Битрейт : 61 бит/сек
ElementCount : 1581
Размер потока : 48, 1 Кбайт (0%)
Заголовок : Full
Язык : English
Default : Нет
Forced : Нет

Текст #5
Идентификатор : 8
Формат : UTF-8
Идентификатор кодека : S_TEXT/UTF8
Идентификатор кодека/Информация : UTF-8 Plain Text
Продолжительность : 1 ч. 48 м.
Битрейт : 67 бит/сек
ElementCount : 1930
Размер потока : 53, 5 Кбайт (0%)
Заголовок : SDH
Язык : English
Default : Нет
Forced : Нет

Меню
00:00:00.000 : :Chapter 1
00:08:47.110 : :Chapter 2
00:13:44.824 : :Chapter 3
00:18:47.501 : :Chapter 4
00:25:42.332 : :Chapter 5
00:32:38.706 : :Chapter 6
00:39:34.956 : :Chapter 7
00:45:24.722 : :Chapter 8
00:51:02.142 : :Chapter 9
00:55:38.335 : :Chapter 10
01:01:34.148 : :Chapter 11
01:09:40.092 : :Chapter 12
01:15:21.558 : :Chapter 13
01:23:03.019 : :Chapter 14
01:29:11.638 : :Chapter 15
01:40:03.831 : :Chapter 16




Скачать Остров фантазий через торрент https://i111.fastpic.ru/big/2020/0504/ac/608523c309923b0af77feb8c3476d2ac.jpg Скачать, смотреть онлайн Остров фантазий бесплантно в хорошем качестве Описание: Загадочный мистер Рорк воплощает в жизнь самые смелые и тайные мечты своих постояльцев на роскошном труднодоступном тропическом ... 10 10 7
Торрент: Зарегистрирован [2020-05-04 04:11] · скачан: 155 раз
Статус: √ проверено
Размер: 2.85 GB
Как cкачать? Как скачать Остров фантазий через торрент | UTorrent

% Раздел Тема Автор DL S | L
Фильмы 2019-2020 [DVDrip, WEB-DLRip, HDrip] (DUB, MVO) [ 2.18 GB ] Остров фантазий / Fantasy Island | Лицензия | BDRip Twi7ter Скачать
7 | 0
Фильмы 2019-2020 [DVDrip, WEB-DLRip, HDrip] (DUB, MVO) [ 1.46 GB ] Остров фантазий / Fantasy Island | Лицензия | BDRip Twi7ter Скачать
2 | 0

28-11-2019 20:33  


Отключить вcю реклaмy на сайте, в т.ч. и в плеере онлайн просмотра!

14-05-2020 16:47 Остров фантазий Скачать торрент  

ничего особенного... а ведь казалось, что будет по-другому



    Дорогой пользователь! Огромная просьба, поблагодарите релизера, оцените раздачу и оставьте свои комментарий, если Вы скачали Остров фантазий через торрент бесплатно!!
    Комментировать посты могут только пользователи прошедшие не сложную регистрацию
    Показать сообщения:    


    Остров фантазий через торрент
    Скачать бесплатно Остров фантазий
    Остров фантазий скачать торрент
    Остров фантазий смотреть онлайн
    Cкачать фильм Остров фантазий бесплатно
    Остров фантазий скачать торрент в хорошем качестве
    Остров фантазий смотреть онлайн бесплатно в хорошем качестве
    Вы не можете начинать темы
    Вы не можете отвечать на сообщения
    Вы не можете редактировать свои сообщения
    Вы не можете удалять свои сообщения
    Вы не можете голосовать в опросах
    Вы не можете прикреплять файлы к сообщениям
    Вы можете скачивать файлы
    Остров фантазий / Fantasy Island [2020, Ужасы, фантастика, BDRip-AVC, ] Дубляж [iTunes] смотреть онлайн, скачать торрент picoco.icu