Доктор Стрэндж

Лицензия

Добыча

Дубляж

Уэнсдэй

1 сезон

Тор

Дубляж

В эфире

Дубляж

Там, где раки поют

MVO

Властелин колец

1 сезон

Deluxe

pack

Рекомендуем

30

Пиратка

ВАЖНО

ВАЖНО

Ghostwire

Пиратка

jed

RePack

nioh2

RePack

RDR2

RePack

NEED FOR SPEED™ PAYBACK

RePack

скачать торрент

Кинопоиск HD

Острые козырьки 6 сезон

6 сезон

FAR CRY 6

RePack

скачать торрент

Лицензия

скачать торрент

MVO

1

1 сезон

скачать торрент

1 сезон

скачать торрент

Лицензия

  

Зов предков / The Call of the Wild (Крис Сандерс) [2020, Драма, приключения, семейный, BDRip-AVC] Дубляж [iTunes]

Зов предков через торрент piratbit.org

Размер: 1.41 GB | Добавлен: 2 года 7 мес. назад | Торрент скачан:389 раз
Смотреть онлайн | Скачать   

04-05-2020 14:47 Зов предков Скачать торрент  

Год выпуска: 2020
Страна: США, Канада
Студия: 3 Arts Entertainment, Twentieth Century Fox Animation, Twentieth Century
Жанр: Драма, приключения, семейный
Продолжительность: 01:39:42
Перевод: Дублированный | iTunes
Субтитры: Русские (Forced, full (iTunes), full (Enigma)), английские

Режиссер: Крис Сандерс

rating

В ролях: Харрисон Форд, Омар Си, Кара Ги, Дэн Стивенс, Брэдли Уитфорд, Джин Луиса Келли, Майкл Хорс, Карен Гиллан, Колин Вуделл, Мика Фицджералд

Описание: История Бака, дружелюбного пса, чья размеренная домашняя жизнь перевернулась с ног на голову во времена золотой лихорадки в 1880-х, когда его вырвали из дома в Калифорнии и перевезли в дикую и холодную Аляску. Будучи новичком в упряжке почтовой службы, а впоследствии лидером, Бак попадает в невероятное приключение, находит свое место в мире и становится хозяином своей жизни.

Качество: BDRip-AVC
Формат: MKV

Видео: 864x362 (2.40:1), 23, 976 fps, MPEG-4 AVC ~ 1645 Kbps avg, 0.219 bit/pixel
Аудио: AC3, 48 kHz, 6 ch, ~384.00 kbps avg | русский | iTunes |
скриншот  скриншот  скриншот  скриншот  скриншот  

Общее
Уникальный идентификатор : 165095672785488221085122164225238527402 (0x7C34451E1B2A5E13AF6865DB45EE6DAA)
Полное имя : The.Call.of.the.Wild.2020.iT.BDRip.1.41Gb.x264.mkv
Формат : Matroska
Версия формата : Version 4
Размер файла : 1, 41 Гбайт
Продолжительность : 1 ч. 39 м.
Общий поток : 2021 Кбит/сек
Название фильма : Зов предков / The Call of the Wild (2019)
Дата кодирования : UTC 2020-05-04 13:13:08
Программа кодирования : mkvmerge v46.0.0 ('No Deeper Escape') 64-bit
Библиотека кодирования : libebml v1.3.10 + libmatroska v1.5.2
Обложка : Yes
Attachments : cover.jpg

Видео
Идентификатор : 1
Формат : AVC
Формат/Информация : Advanced Video Codec
Профиль формата : High@L4.1
Настройки формата : CABAC / 12 Ref Frames
Параметр CABAC формата : Да
Параметр RefFrames формата : 12 кадров
Идентификатор кодека : V_MPEG4/ISO/AVC
Продолжительность : 1 ч. 39 м.
Битрейт : 1645 Кбит/сек
Ширина : 864 пикселя
Высота : 362 пикселя
Соотношение сторон : 2, 40:1
Режим частоты кадров : Постоянный
Частота кадров : 23, 976 кадра/сек
Цветовое пространство : YUV
Субдискретизация насыщенности : 4:2:0
Битовая глубина : 8 бит
Тип развёртки : Прогрессивная
Бит/(Пиксели*Кадры) : 0.219
Размер потока : 1, 14 Гбайт (81%)
Заголовок : #stillet
Библиотека кодирования : x264 core 152 r2851bm ba24899
Настройки программы : cabac=1 / ref=12 / deblock=1:-3:-3 / analyse=0x3:0x113 / me=umh / subme=11 / psy=1 / psy_rd=1.00:0.15 / mixed_ref=1 / me_range=32 / chroma_me=1 / trellis=2 / 8x8dct=1 / cqm=0 / deadzone=21, 11 / fast_pskip=0 / chroma_qp_offset=-3 / threads=8 / lookahead_threads=3 / sliced_threads=0 / nr=0 / decimate=0 / interlaced=0 / bluray_compat=0 / constrained_intra=0 / bframes=12 / b_pyramid=2 / b_adapt=2 / b_bias=0 / direct=3 / weightb=1 / open_gop=0 / weightp=2 / keyint=240 / keyint_min=23 / scenecut=40 / intra_refresh=0 / rc=2pass / mbtree=0 / bitrate=1645 / ratetol=1.0 / qcomp=0.60 / qpmin=0 / qpmax=69 / qpstep=4 / cplxblur=20.0 / qblur=0.5 / ip_ratio=1.40 / pb_ratio=1.30 / aq=1:1.00
Язык : English
Default : Да
Forced : Нет

Аудио
Идентификатор : 2
Формат : AC-3
Формат/Информация : Audio Coding 3
Коммерческое название : Dolby Digital
Идентификатор кодека : A_AC3
Продолжительность : 1 ч. 39 м.
Вид битрейта : Постоянный
Битрейт : 384 Кбит/сек
Каналы : 6 каналов
ChannelLayout : L R C LFE Ls Rs
Частота : 48, 0 КГц
Частота кадров : 31, 250 кадров/сек (1536 SPF)
Метод сжатия : С потерями
Размер потока : 274 Мбайт (19%)
Заголовок : iTunes
Язык : Russian
Default : Да
Forced : Да

Текст #1
Идентификатор : 3
Формат : UTF-8
Идентификатор кодека : S_TEXT/UTF8
Идентификатор кодека/Информация : UTF-8 Plain Text
Продолжительность : 29 м. 48 с.
Битрейт : 2 бит/сек
ElementCount : 12
Размер потока : 553 байт (0%)
Заголовок : Forced
Язык : Russian
Default : Да
Forced : Да

Текст #2
Идентификатор : 4
Формат : UTF-8
Идентификатор кодека : S_TEXT/UTF8
Идентификатор кодека/Информация : UTF-8 Plain Text
Продолжительность : 1 ч. 38 м.
Битрейт : 34 бит/сек
ElementCount : 765
Размер потока : 24, 7 Кбайт (0%)
Заголовок : Full [iTunes]
Язык : Russian
Default : Нет
Forced : Нет

Текст #3
Идентификатор : 5
Формат : UTF-8
Идентификатор кодека : S_TEXT/UTF8
Идентификатор кодека/Информация : UTF-8 Plain Text
Продолжительность : 1 ч. 38 м.
Битрейт : 36 бит/сек
ElementCount : 815
Размер потока : 26, 7 Кбайт (0%)
Заголовок : Full [Enigma]
Язык : Russian
Default : Нет
Forced : Нет

Меню
00:00:00.000 : en:Chapter 01
00:03:35.882 : en:Chapter 02
00:05:58.608 : en:Chapter 03
00:10:31.339 : en:Chapter 04
00:15:49.699 : en:Chapter 05
00:19:03.851 : en:Chapter 06
00:23:29.533 : en:Chapter 07
00:27:28.355 : en:Chapter 08
00:32:27.821 : en:Chapter 09
00:34:32.529 : en:Chapter 10
00:41:43.793 : en:Chapter 11
00:46:14.522 : en:Chapter 12
00:50:07.338 : en:Chapter 13
00:55:15.562 : en:Chapter 14
01:00:30.919 : en:Chapter 15
01:04:04.632 : en:Chapter 16
01:07:46.980 : en:Chapter 17
01:12:38.563 : en:Chapter 18
01:17:02.952 : en:Chapter 19
01:19:25.219 : en:Chapter 20
01:23:07.107 : en:Chapter 21
01:26:21.218 : en:Chapter 22
01:29:26.194 : en:Chapter 23
01:32:22.620 : en:Chapter 24




Скачать Зов предков через торрент https://i111.fastpic.ru/big/2020/0504/e0/bbbe22c9067c7dff95985025a7a402e0.jpg Скачать, смотреть онлайн Зов предков бесплантно в хорошем качестве Описание: История Бака, дружелюбного пса, чья размеренная домашняя жизнь перевернулась с ног на голову во времена золотой лихорадки в ... 10 10 9
Торрент: Зарегистрирован [2020-05-04 14:47] · скачан: 389 раз
Статус: √ проверено
Размер: 1.41 GB
Как cкачать? Как скачать Зов предков через торрент | UTorrent

% Раздел Тема Автор DL S | L
Ultra HD (UHD: 2K, 4K, 8K) [ 10.46 GB ] Зов предков / The Call of the Wild | iTunes | 2160p bober100 Скачать
1 | 0
Ultra HD (UHD: 2K, 4K, 8K) [ 48.79 GB ] Зов предков / The Call of the Wild | iTunes | 2160p bober100 Скачать
3 | 0
Фильмы [HD 720p, 1080p] (Хороший звук DUB, MVO) [ 9.11 GB ] Зов предков / The Call of the Wild | iTunes | 1080p bober100 Скачать
1 | 0
Фильмы 2019-2020 [DVDrip, WEB-DLRip, HDrip] (DUB, MVO) [ 1.42 GB ] Зов предков / The Call of the Wild | Лицензия | BDRip Twi7ter Скачать
25 | 1
Фильмы 2019-2020 [DVDrip, WEB-DLRip, HDrip] (DUB, MVO) [ 2.85 GB ] Зов предков / The Call of the Wild | iTunes | BDRip-AVC bober100 Скачать
1 | 0
Фильмы 2019-2020 [DVDrip, WEB-DLRip, HDrip] (DUB, MVO) [ 1.46 GB ] Зов предков / The Call of the Wild | HDRezka Studio | BDRip bober100 Скачать
1 | 0
Фильмы (Blu-ray, BD-Remux, HDDVD) [ 24.5 GB ] Зов предков / The Call of the Wild | iTunes | BD Remux 1080p bober100 Скачать
2 | 0

28-11-2019 20:33  


Отключить вcю реклaмy на сайте, в т.ч. и в плеере онлайн просмотра!

    Дорогой пользователь! Огромная просьба, поблагодарите релизера, оцените раздачу и оставьте свои комментарий, если Вы скачали Зов предков через торрент бесплатно!!
    Комментировать посты могут только пользователи прошедшие не сложную регистрацию
    Показать сообщения:    


    Зов предков через торрент
    Скачать бесплатно Зов предков
    Зов предков скачать торрент
    Зов предков смотреть онлайн
    Cкачать фильм Зов предков бесплатно
    Зов предков скачать торрент в хорошем качестве
    Зов предков смотреть онлайн бесплатно в хорошем качестве
    Вы не можете начинать темы
    Вы не можете отвечать на сообщения
    Вы не можете редактировать свои сообщения
    Вы не можете удалять свои сообщения
    Вы не можете голосовать в опросах
    Вы не можете прикреплять файлы к сообщениям
    Вы можете скачивать файлы
    Зов предков / The Call of the Wild [2020, Драма, приключения, семейный, BDRip-AVC] Дубляж [iTunes] смотреть онлайн, скачать торрент picoco.icu