Достать ножи: Стеклянная луковица

MVO

Добыча

Дубляж

Уэнсдэй

1 сезон

Тор

Дубляж

13 клиническая

1 сезон

Жестокая ночь

MVO

Одни из нас

1 сезон

Deluxe

pack

Рекомендуем

30

Пиратка

ВАЖНО

ВАЖНО

Ghostwire

Пиратка

jed

RePack

nioh2

RePack

RDR2

RePack

NEED FOR SPEED™ PAYBACK

RePack

скачать торрент

Кинопоиск HD

Острые козырьки 6 сезон

6 сезон

FAR CRY 6

RePack

скачать торрент

Лицензия

скачать торрент

MVO

1

1 сезон

скачать торрент

1 сезон

скачать торрент

Лицензия

  

Хищные птицы: Потрясающая история Харли Квинн / Birds of Prey: And the Fantabulous Emancipation of One Harley Quinn (Кэти Янь) [2020, боевик, криминал, комедия, UHD BDRemux 2160p, (Dolby Vision TV)] Дубляж [iTunes]

Хищные птицы: Потрясающая история Харли Квинн через торрент piratbit.org

Размер: 45.88 GB | Добавлен: 2 года 8 мес. назад | Торрент скачан:56 раз
Смотреть онлайн | Скачать | Поддержите нас   

06-05-2020 01:31 Хищные птицы: Потрясающая история Харли Квинн Скачать торрент  

Хищные птицы: Потрясающая история Харли Квинн |
Birds of Prey: And the Fantabulous Emancipation of One Harley Quinn

Год выпуска: 2020
Страна: США
Студия: Clubhouse Pictures (II), DC Entertainment, Kroll & Co. Entertainment
Жанр: боевик, криминал, комедия
Продолжительность: 01:48:54
Перевод: Дублированный | iTunes
Субтитры: Русские (Forced, отдельно)

Режиссер: Кэти Янь

rating

В ролях: Марго Робби, Джерни Смоллетт, Мэри Элизабет Уинстэд, Рози Перес, Элла Джей Баско, Юэн Макгрегор, Крис Мессина, Бояна Новакович, Али Вонг, Дэвид Ури

Описание: Харли Квинн рассталась с Джокером и через некоторое время сообщила об этом всему Готэму, взорвав тот самый химзавод. Девушка больше не тоскует по несостоявшимся отношениям — ей некогда, так как она также потеряла неприкосновенность, и теперь за ней охотятся разной степени криминализованности граждане, которым она когда-либо наносила вред. А в это время ставший крёстным отцом Готема Роман Сайонис очень жаждет вернуть пропавший бриллиант, который стащила у его подручного малолетняя карманница.

Качество: UHD BDRemux 2160p | Dolby Vision TV
Формат: MP4

Видео: 3840x2160 at 23.976 fps, MPEG-H HEVC HDR, Dolby Vision Video, 59900 kbps avg
Аудио: 48 kHz, AC3, 5.1, 384 Kbps | iTunes | RUS |
Данный вид релизов (контейнер MP4) предназначен для встроенного в ТВ (соответственно, с поддержкой DV) плеер.
Т.Е. Можно использовать как USB flash/HDD, так и DLNA / Plex - подобные сервисы/программы. дополнительный-внешний плеер не обязателен.

Внимание!
На моделях LG 2016 возможны сюрпризы "через раз", 2017-2018 должно идти без сюрпризов )
скриншот  скриншот  скриншот  скриншот  скриншот  

General
Complete name: D:Video222Birds.of.Prey.and.the.Fantabulous.Emancipation.of.One.Harley.Quinn.2020.D.MVO.BDREMUX.2160p.DV_TV.seleZenBirds.of.Prey.and.the.Fantabulous.Emancipation.of.One.Harley.Quinn.2020.D.MVO.BDREMUX.2160p.DV_TV.seleZen.mp4
Format: MPEG-4
Format profile: Base Media / Version 2
Codec ID: mp42 (mp42/dby1/isom)
File size: 45.9 GiB
Duration: 1 h 48 min
Overall bit rate: 60.3 Mb/s
Encoded date: UTC 2020-05-06 00:16:16
Tagged date: UTC 2020-05-06 00:16:16

Video #1
ID: 1
Format: HEVC
Format/Info: High Efficiency Video Coding
Format profile: Main 10@L5.1@High
HDR format: SMPTE ST 2094 App 4, Version 1, HDR10+ Profile B compatible
Codec ID: hev1
Codec ID/Info: High Efficiency Video Coding
Duration: 1 h 48 min
Bit rate: 59.9 Mb/s
Width: 3 840 pixels
Height: 2 160 pixels
Display aspect ratio: 16:9
Frame rate mode: Constant
Frame rate: 23.976 (24000/1001) FPS
Color space: YUV
Chroma subsampling: 4:2:0 (Type 2)
Bit depth: 10 bits
Bits/(Pixel*Frame): 0.301
Stream size: 45.5 GiB (99%)
Default: No
Encoded date: UTC 2020-05-06 00:16:16
Tagged date: UTC 2020-05-06 00:16:16
Color range: Limited
Color primaries: BT.2020
Transfer characteristics: PQ
Matrix coefficients: BT.2020 non-constant
Mastering display color pri: BT.2020
Mastering display luminance: min: 0.0050 cd/m2, max: 4000 cd/m2
Maximum Content Light Level: 683 cd/m2
Maximum Frame-Average Light: 136 cd/m2
Codec configuration box: hvcC

Video #2
ID: 2
Format: HEVC
Format/Info: High Efficiency Video Coding
Format profile: Main 10@L5.1@High
HDR format: Dolby Vision, Version 1.0, dvhe.07.06, EL+RPU, Blu-ray compatible / SMPTE ST 2086, HDR10 compatible
Codec ID: dvhe
Codec ID/Info: High Efficiency Video Coding with Dolby Vision
Duration: 1 h 48 min
Bit rate: 64.6 kb/s
Width: 1 920 pixels
Height: 1 080 pixels
Display aspect ratio: 16:9
Frame rate mode: Constant
Frame rate: 23.976 (24000/1001) FPS
Color space: YUV
Chroma subsampling: 4:2:0 (Type 2)
Bit depth: 10 bits
Bits/(Pixel*Frame): 0.001
Stream size: 50.4 MiB (0%)
Default: No
Encoded date: UTC 2020-05-06 00:16:16
Tagged date: UTC 2020-05-06 00:16:16
Color range: Limited
Color primaries: BT.2020
Transfer characteristics: PQ
Matrix coefficients: BT.2020 non-constant
Mastering display color pri: BT.2020
Mastering display luminance: min: 0.0050 cd/m2, max: 4000 cd/m2
Codec configuration box: hvcC+dvcC

Audio
ID: 3
Format: AC-3
Format/Info: Audio Coding 3
Commercial name: Dolby Digital
Codec ID: ac-3
Duration: 1 h 48 min
Bit rate mode: Constant
Bit rate: 384 kb/s
Channel(s): 6 channels
Channel layout: L R C LFE Ls Rs
Sampling rate: 48.0 kHz
Frame rate: 31.250 FPS (1536 SPF)
Compression mode: Lossy
Stream size: 299 MiB (1%)
Language: Russian
Service kind: Complete Main
Default: No
Encoded date: UTC 2020-05-06 00:16:16
Tagged date: UTC 2020-05-06 00:16:16




Скачать Хищные птицы: Потрясающая история Харли Квинн через торрент https://img12.lostpic.net/2020/05/04/150080176797087b8cb9252649e3dc25.jpg Скачать, смотреть онлайн Хищные птицы: Потрясающая история Харли Квинн бесплантно в хорошем качестве Описание: Харли Квинн рассталась с Джокером и через некоторое время сообщила об этом всему Готэму, взорвав тот самый химзавод. Девушка ... 10 10 3
Info! Золотая раздача, скачанное не засчитывается.
Торрент: Зарегистрирован [2020-05-06 01:31] · скачан: 56 раз
Статус: √ проверено
Размер: 45.88 GB
Как cкачать? Как скачать Хищные птицы: Потрясающая история Харли Квинн через торрент | UTorrent

% Раздел Тема Автор DL S | L
Фильмы (HD 720p, 1080p) (48-60 fps) [ 3.73 GB ] Хищные птицы: Потрясающая история Харли Квинн / Birds of Prey: And the Fantabulous Emancipation of One Harley Quinn | Дубляж | 720p / 60 FPS slaventi-69 Скачать
1 | 0
Фильмы 2019-2020 [DVDrip, WEB-DLRip, HDrip] (DUB, MVO) [ 2.13 GB ] Хищные птицы: Потрясающая история Харли Квинн / Birds of Prey: And the Fantabulous Emancipation of One Harley Quinn | Лицензия | BDRip Twi7ter Скачать
12 | 0
Фильмы 2019-2020 [DVDrip, WEB-DLRip, HDrip] (DUB, MVO) [ 1.41 GB ] Хищные птицы: Потрясающая история Харли Квинн / Birds of Prey: And the Fantabulous Emancipation of One Harley Quinn | Лицензия | BDRip Twi7ter Скачать
36 | 4

28-11-2019 20:33  


Отключить вcю реклaмy на сайте, в т.ч. и в плеере онлайн просмотра!

    Дорогой пользователь! Огромная просьба, поблагодарите релизера, оцените раздачу и оставьте свои комментарий, если Вы скачали Хищные птицы: Потрясающая история Харли Квинн через торрент бесплатно!!
    Комментировать посты могут только пользователи прошедшие не сложную регистрацию
    Показать сообщения:    


    Хищные птицы: Потрясающая история Харли Квинн через торрент
    Скачать бесплатно Хищные птицы: Потрясающая история Харли Квинн
    Хищные птицы: Потрясающая история Харли Квинн скачать торрент
    Хищные птицы: Потрясающая история Харли Квинн смотреть онлайн
    Cкачать фильм Хищные птицы: Потрясающая история Харли Квинн бесплатно
    Хищные птицы: Потрясающая история Харли Квинн скачать торрент в хорошем качестве
    Хищные птицы: Потрясающая история Харли Квинн смотреть онлайн бесплатно в хорошем качестве
    Вы не можете начинать темы
    Вы не можете отвечать на сообщения
    Вы не можете редактировать свои сообщения
    Вы не можете удалять свои сообщения
    Вы не можете голосовать в опросах
    Вы не можете прикреплять файлы к сообщениям
    Вы можете скачивать файлы
    Хищные птицы: Потрясающая история Харли Квинн / Birds of Prey: And the Fantabulous Emancipation of One Harley Quinn [2020, боевик, криминал, комедия, UHD BDRemux 2160p, ] Дубляж [iTunes] смотреть онлайн, скачать торрент picoco.icu