>

5.6

iTunes

6.1

MVO

5.7

MVO

1

7.4

1 сезон

6.8

iTunes

7.2

1 сезон

13

6.7

1 сезон

8.3

RePack

30

Deluxe

pack

9.9

Лицензия

ВАЖНО

ИГРА 18+

pack

7.3

RePack

MK11

7.7

RePack

jed

7.8

RePack

fifa19

8.5

RePack

RDR2

RePack

NEED FOR SPEED™ PAYBACK

4 сезон

9 сезон

Бесстыжие 9 сезон

Все сериалы

все сериалы на PB.wtf

RePack

FAR CRY 5

Anonymous, добрый день, мы катастрофически не успеваем собрать деньги на оплату серверов, помогите нам пожалуйста 5,10,15р., для нас важна любая помощь . В качестве благодарности мы отключим Вам всю рекламу на сайте (укажите свой ник в строку Ваше имя)!

×
  
Magnet ссылка

Миллиарды / Billions / Сезон: 5 / Серии: 1-10 из 12 (Колин Бакси, Джон Дал, Нил Бёргер) [2020, Драма, WEB-DL 1080p] MVO [LostFilm] piratbit.org

Миллиарды через торрент piratbit.org

Качают: 1 [ 0 KB/s ]
Размер: 32.11 GB | Добавлен: 8 ч. назад | Торрент скачан:0 раз
Смотреть онлайн Миллиарды | Скачать    Ребята, помогите собрать деньги на оплату серверов!!!

07-05-2020 16:03 Миллиарды Скачать торрент  

Миллиарды | Billions
«Power is the ultimate currency»
Год выпуска: 2020
Страна: США
Студия: Showtime Entertainment
Жанр: Драма
Продолжительность: ~00:57:00
Перевод: Профессиональный (многоголосый закадровый) | LostFilm
Субтитры: Русские (Full |Amedia|), английские (SDH)

Режиссёр: Колин Бакси, Джон Дал, Нил Бёргер

В ролях: Дэмиэн Льюис, Пол Джаматти, Мэгги Сифф, Малин Акерман, Тоби Леонард Мур, Дэвид Костабайл, Дэниэл К. Исаак, Фрэнк Хартс и др.

Описание: В мире много телесериалов, которые рассказывают о богатеях. А вы когда - нибудь смотрели сериал об их противостоянии. О конфликте двух довольно известных личностях расскажет телесериал «Миллиардеры». Этот фильм снят по сценарию Дэвида Левина и Брайна Коппельмана. Именно они написали сценарий к таким известным фильмам, как «13 друзей Оушена», «Шулера», «Девушка по вызову». Сюжет очень необычен. Здесь столкнутся интересы двух влиятельных людей. Один - юрист Чак Роадса. Он прокурор, известный своей принципиальностью. А второй Бобби Аксельрод – финансист. Он король среди себе подобных. Риск для него обычное дело, да и удача ему всегда улыбается.

rating

Качество: WEB-DL 1080p
Контейнер: | X264 | MKV |

Видео: 1920x1080 (16:9), 23.976 fps, ~ 7400 Kbps
Аудио Rus: AC3, 48,0 kHz, 6 ch, 640 kbps |LostFilm|
Аудио Eng: AC3, 48,0 kHz, 6 ch, 640 kbps |Original|
Complete name : D:Billions_(s05)_LostFilm_1080pBillions.2020.S05E01.The.New.Decas.1080p.AMZN.WEB-DL.DD5.1.x264-NTb_EniaHD.mkv
Format : Matroska
Format version : Version 2
File size : 3.65 GiB
Duration : 59 min 7 s
Overall bit rate : 8 836 kb/s
Encoded date : UTC 2020-05-07 14:01:03
Writing application : mkvmerge v4.9.1 ('Ich will') сборка от Jul 11 2011 23:53:15
Writing library : libebml v1.2.1 + libmatroska v1.1.1

Video
ID : 1
Format : AVC
Format/Info : Advanced Video Codec
Format profile : High@L4
Format settings : CABAC / 4 Ref Frames
Format settings, CABAC : Yes
Format settings, Reference : 4 frames
Codec ID : V_MPEG4/ISO/AVC
Duration : 59 min 7 s
Bit rate mode : Constant
Bit rate : 7 380 kb/s
Nominal bit rate : 10 000 kb/s
Width : 1 920 pixels
Height : 1 080 pixels
Display aspect ratio : 16:9
Frame rate mode : Constant
Frame rate : 23.976 (24000/1001) FPS
Color space : YUV
Chroma subsampling : 4:2:0
Bit depth : 8 bits
Scan type : Progressive
Bits/(Pixel*Frame) : 0.148
Stream size : 3.05 GiB (84%)
Title : Release by EniaHD
Default : Yes
Forced : No
Color range : Limited
Color primaries : BT.709
Transfer characteristics : BT.709
Matrix coefficients : BT.709

Audio #1
ID : 2
Format : AC-3
Format/Info : Audio Coding 3
Commercial name : Dolby Digital
Codec ID : A_AC3
Duration : 59 min 7 s
Bit rate mode : Constant
Bit rate : 640 kb/s
Channel(s) : 6 channels
Channel layout : L R C LFE Ls Rs
Sampling rate : 48.0 kHz
Frame rate : 31.250 FPS (1536 SPF)
Compression mode : Lossy
Stream size : 271 MiB (7%)
Title : LostFilm
Language : Russian
Service kind : Complete Main
Default : Yes
Forced : No

Audio #2
ID : 3
Format : AC-3
Format/Info : Audio Coding 3
Commercial name : Dolby Digital
Codec ID : A_AC3
Duration : 59 min 7 s
Bit rate mode : Constant
Bit rate : 640 kb/s
Channel(s) : 6 channels
Channel layout : L R C LFE Ls Rs
Sampling rate : 48.0 kHz
Frame rate : 31.250 FPS (1536 SPF)
Compression mode : Lossy
Stream size : 271 MiB (7%)
Language : English
Service kind : Complete Main
Default : No
Forced : No

Text #1
ID : 4
Format : UTF-8
Codec ID : S_TEXT/UTF8
Codec ID/Info : UTF-8 Plain Text
Title : Full |Amedia|
Language : Russian
Default : No
Forced : No

Text #2
ID : 5
Format : UTF-8
Codec ID : S_TEXT/UTF8
Codec ID/Info : UTF-8 Plain Text
Title : SDH
Language : English
Default : No
Forced : No
скриншот  скриншот  скриншот  скриншот  
Раздача ведётся путём добавления новых серий, при каждом добавлении создаётся новый торрент. Чтобы начать докачку новой серии, пользователям необходимо сделать следующее:
- Остановить скачивание.
- Удалить старый торрент у себя из клиента (старые серии удалять не надо).
- Скачать новый торрент и запустить его у себя в клиенте вместо старого, при этом указать клиенту путь в старую папку куда и должно происходить скачивание новых серий.
Ваш клиент при этом должен произвести хеширование (проверку) старой папки (если не производит сам - помогите ему сделать это), и будет докачивать только те серии которых у вас ещё нет. Старые серии при этом не удаляются, а продолжают раздаваться!
piratbit.org



Скачать Миллиарды через торрент https://i2.imageban.ru/out/2020/05/06/bc7aaf64571b2914758ee1f526d27c10.png Скачать, смотреть онлайн Миллиарды бесплантно в хорошем качестве Описание: В мире много телесериалов, которые рассказывают о богатеях. А вы когда - нибудь смотрели сериал об их противостоянии. О конфликте ... 10 10 4
Торрент: Зарегистрирован [2021-09-24 03:33] · скачан: 0 раз
Статус: √ проверено
Размер: 32.11 GB
Как cкачать? Как скачать Миллиарды через торрент | UTorrent

% Раздел Тема Автор DL S | L
Зарубежные сериалы [ 15.06 GB ] Миллиарды / Billions / Сезон: 5 / Серии: 1-10 из 12 [2020-2021 WEBRip 720p] [MVO] killermax2013 Скачать
2 | 3
Зарубежные сериалы [ 22.88 GB ] Миллиарды / Billions / Сезон: 5 / Серии: 1-7 из 12 [2020 WEB-DL 1080p] MVO [Novamedia / Amedia] bober100 Скачать
1 | 0
Зарубежные сериалы [ 28.75 GB ] Миллиарды / Billions / Сезон: 5 / Серии: 1-9 из 12 [2020 WEBRip 1080p] MVO [NewStudio] bober100 Скачать
2 | 0
Зарубежные сериалы [ 22.69 GB ] Миллиарды / Billions / Сезон: 5 / Серии: 1-7 из 12 [2020 WEB-DL 1080p] MVO [Jaskier] bober100 Скачать
1 | 0

28-11-2019 20:33  

Отключить всю рекламу на сайте

    Дорогой пользователь! Огромная просьба, поблагодарите релизера, оцените раздачу и оставьте свои комментарий, если Вы скачали Миллиарды через торрент бесплатно!
    Комментировать посты могут только пользователи прошедшие не сложную регистрацию
    Показать сообщения:    

    Миллиарды через торрент
    Скачать бесплатно Миллиарды
    Миллиарды скачать торрент
    Миллиарды смотреть онлайн
    Cкачать фильм Миллиарды бесплатно
    Миллиарды скачать торрент в хорошем качестве
    Миллиарды смотреть онлайн бесплатно в хорошем качестве


    Вы не можете начинать темы
    Вы не можете отвечать на сообщения
    Вы не можете редактировать свои сообщения
    Вы не можете удалять свои сообщения
    Вы не можете голосовать в опросах
    Вы не можете прикреплять файлы к сообщениям
    Вы можете скачивать файлы