Доктор Стрэндж

Лицензия

Добыча

Дубляж

Дом дракона

1 сезон

Тор

Дубляж

В эфире

Дубляж

Там, где раки поют

MVO

Властелин колец

1 сезон

Ultimate

pack

Рекомендуем

30

Пиратка

ВАЖНО

ВАЖНО

Ghostwire

Пиратка

jed

RePack

nioh2

RePack

RDR2

RePack

NEED FOR SPEED™ PAYBACK

RePack

скачать торрент

Кинопоиск HD

Острые козырьки 6 сезон

6 сезон

FAR CRY 6

RePack

скачать торрент

Лицензия

скачать торрент

MVO

1

1 сезон

скачать торрент

1 сезон

скачать торрент

Лицензия

  

Лови момент / Come se non ci fosse un domani (Игор Биддау) [2019 г., комедия, WEB-DLRip, Профессиональный многоголосый закадроаый "iTunes"]

Лови момент через торрент piratbit.org

Размер: 712 MB | Добавлен: 2 года 6 мес. назад | Торрент скачан:17 раз
Смотреть онлайн | Скачать   

08-05-2020 18:31 Лови момент Скачать торрент  

Лови момент / Come se non ci fosse un domani
Год выпуска: 2019
Страна: Италия / Firenze Produzioni Cinematografiche, Adler Productions, Babbudoiu C.
Жанр: комедия
Продолжительность: 01:30:30
Перевод: Профессиональный многоголосый закадроаый (iTunes)

Режиссер: Игор Биддау

rating

В ролях: Франческо Мальком, Марина Казанкова, Росселла Брешия, Тим Дайш, Даниэле Монакелла, Бенито Ургу, Джованни Качоппо, Джанлука Импастато, Мария Челесте Селлитто, Гаэтано Дженнаи

Описание: Все истории объединены единой темой: как это - жить моментом, не думая о завтрашнем дне. Тренер бейсбольной команды для людей с ограниченными возможностями сам решает притвориться инвалидом, чтобы завоевать сердце девушки. Астронавт, потерянный в космосе, решает в последнем сообщении на Землю поделиться ВСЕМ, что думает о близких. Человек, который ненавидит соцсети, выкидывает смартфон, но случайный прохожий снимает это - и тот превращается в героя соцсетей. И еще множество веселых историй, из которых героев будет не так-то просто выпутаться.

Качество: WEB-DLRip
Формат: AVI
Видео кодек: DivX
Аудио кодек: MP3
Видео: 640x272 (2.35:1), 24.000 fps, DivX Codec 4.x ~961 kbps avg, 0.23 bit/pixel
Аудио: 48 kHz, MPEG Layer 3, 2 ch, ~128.00 kbps avg
скриншот   скриншот   скриншот   скриншот   скриншот   скриншот   скриншот   скриншот  

Общее
Полное имя : F:\ФИЛЬМЫ\Лови момент.2019.WEB-DLRip.avi
Формат : AVI
Формат/Информация : Audio Video Interleave
Размер файла : 712 Мбайт
Продолжительность : 1 ч. 30 м.
Общий поток : 1 099 Кбит/сек
Программа кодирования : VirtualDubMod 1.5.10.3 | www.virtualdub-fr.org || (build 2550/release)
Библиотека кодирования : VirtualDubMod build 2550/release

Видео
Идентификатор : 0
Формат : MPEG-4 Visual
Профиль формата : Advanced Simple@L5
Настройки формата : BVOP3 / GMC3 / QPel
Параметр BVOP формата : 3
Параметр QPel формата : Да
Параметр GMC формата : 3 точки перехода
Параметр матрицы формата : Default (MPEG)
Идентификатор кодека : DIVX
Идентификатор кодека/Информация : Project Mayo
Идентификатор кодека/Подсказка : DivX 4
Продолжительность : 1 ч. 30 м.
Битрейт : 962 Кбит/сек
Ширина : 640 пикселей
Высота : 272 пикселя
Соотношение сторон : 2,35:1
Частота кадров : 24,000 кадра/сек
Цветовое пространство : YUV
Субдискретизация насыщенности : 4:2:0
Битовая глубина : 8 бит
Тип развёртки : Прогрессивная
Метод сжатия : С потерями
Бит/(Пиксели*Кадры) : 0.230
Размер потока : 623 Мбайт (88%)
Библиотека кодирования : XviD 1.2.1 (UTC 2008-12-04)

Аудио
Идентификатор : 1
Формат : MPEG Audio
Версия формата : Version 1
Профиль формата : Layer 3
Настройки формата : Joint stereo / MS Stereo
Идентификатор кодека : 55
Идентификатор кодека/Подсказка : MP3
Продолжительность : 1 ч. 30 м.
Вид битрейта : Постоянный
Битрейт : 128 Кбит/сек
Каналы : 2 канала
Частота : 48,0 КГц
Частота кадров : 41,667 кадра/сек (1152 SPF)
Метод сжатия : С потерями
Размер потока : 82,9 Мбайт (12%)
Выравнивание : Соединение по промежуткам
Продолжительность промежутка : 42 мс. (1,00 видеокадр)
Время предзагрузки промежутка : 504 мс.
Библиотека кодирования : LAME3.99r
Настройки программы : -m j -V 4 -q 2 -lowpass 17 -b 128




Скачать Лови момент через торрент https://pic1.kartinco.top/images/12/jda8x.jpg Скачать, смотреть онлайн Лови момент бесплантно в хорошем качестве Описание: Все истории объединены единой темой: как это - жить моментом, не думая о завтрашнем дне. Тренер бейсбольной команды для людей с ... 10 10 2
Торрент: Зарегистрирован [2020-05-08 18:31] · скачан: 17 раз
Статус: √ проверено
Размер: 712 MB
Как cкачать? Как скачать Лови момент через торрент | UTorrent

% Раздел Тема Автор DL S | L
Фильмы (WEB-DL 720p, 1080p) [ 3.11 GB ] Лови момент / Come se non ci fosse un domani | iTunes | 1080p bober100 Скачать
1 | 0
Фильмы 2019-2020 [DVDrip, WEB-DLRip, HDrip] (DUB, MVO) [ 1.46 GB ] Лови момент / Come se non ci fosse un domani | iTunes | DLRip bober100 Скачать
1 | 0

28-11-2019 20:33  


Отключить вcю реклaмy на сайте, в т.ч. и в плеере онлайн просмотра!

    Дорогой пользователь! Огромная просьба, поблагодарите релизера, оцените раздачу и оставьте свои комментарий, если Вы скачали Лови момент через торрент бесплатно!!
    Комментировать посты могут только пользователи прошедшие не сложную регистрацию
    Показать сообщения:    


    Лови момент через торрент
    Скачать бесплатно Лови момент
    Лови момент скачать торрент
    Лови момент смотреть онлайн
    Cкачать фильм Лови момент бесплатно
    Лови момент скачать торрент в хорошем качестве
    Лови момент смотреть онлайн бесплатно в хорошем качестве
    Вы не можете начинать темы
    Вы не можете отвечать на сообщения
    Вы не можете редактировать свои сообщения
    Вы не можете удалять свои сообщения
    Вы не можете голосовать в опросах
    Вы не можете прикреплять файлы к сообщениям
    Вы можете скачивать файлы
    Лови момент / Come se non ci fosse un domani [2019 г., комедия, WEB-DLRip, Профессиональный многоголосый закадроаый "iTunes"] смотреть онлайн, скачать торрент picoco.icu