Ссылка на приватное зеркало всего за 1$. Внимание количество ограничено!!!

iTunes

iTunes

iTunes

1

iTunes

iTunes

iTunes

iTunes

iTunes

30
pack

$ от Little Big

ВАЖНО

!!Акция!!

Alien_RageХит недели

RePack

Resident Evil 21

ИГРА 18+

pack

RePack

jed

!!Акция!!

Alien_Rage

RePack

fifa19

RePack

Assassins Creed: Odyssey

RePack

NEED FOR SPEED™ PAYBACK

4 сезон

9 сезон

Бесстыжие 9 сезон

Все сериалы

все сериалы на PB.wtf

RePack

FAR CRY 5
  

Достать ножи / Knives Out (Райан Джонсон) [2019, детектив, комедия, драма, криминал, BDRip 1080p] DVO [Кубик в Кубе] piratbit.org

Достать ножи через торрент piratbit.org

Раздают: 3 [ 48 KB/s ]
Размер: 10.03 GB | Добавлен: 2 мес. 4 д. назад | Торрент скачан:170 раз
Скачать  

08-05-2020 19:06 Достать ножи Скачать торрент  

Достать ножи | Knives Out
Год выпуска: 2019
Страна: США
Выпущено: Lionsgate, Media Rights Capital (MRC), T-Street See
Жанр: детектив, комедия, драма, криминал
Продолжительность: 02:10:13
Перевод: Профессиональный (двухголосый закадровый) | Кубик в Кубе
Субтитры: Русские (Full), английские (Full)

Режиссер: Райан Джонсон

rating скриншот  

В ролях:

Дэниэл Крэйг (Benoit Blanc), Ана де Армас (Marta Cabrera), Крис Эванс (Ransom Drysdale), Джейми Ли Кёртис (Linda Drysdale), Майкл Шеннон (Walt Thrombey), Дон Джонсон (Richard Drysdale), Тони Коллетт (Joni Thrombey), Лакит Стэнфилд (Lieutenant Elliott), Кристофер Пламмер (Harlan Thrombey), Кэтрин Лэнгфорд (Meg Thrombey), Джейден Мартелл (Jacob Thrombey), Рики Линдхоум (Donna Thrombey)
Описание: События фильма «Достать ножи» начинают свое развитие после юбилея востребованного автора, работающего в жанре криминального романа. Являясь популярным писателем, он привлекает к своей персоне много внимания. Но чаще всего автор получает восторженные отзывы от читателей и критиков. Несмотря на это, у него есть враги. Сразу же после юбилея тело писателя обнаруживают случайные прохожие. Они вызывают полицейских на место преступления. Вскоре после этого начинается официальное расследование, которое поручают очень дотошному, но харизматичному детективу. Он сразу же с головой погружается в изучение материалов дела и приходит к выводу, что оно может быть одним из самых сложных в его непростой карьере. Ему нужно найти способ разорвать сотканную паутину из лжи и хитрых уловок, которой его пытаются опутать члены семейства убитого писателя. Впереди главного героя ждет множество скелетов в шкафах и мрачных тайн.

Качество: BDRip 1080p
Формат: MKV

Видео: 1920x1038 at 23.976 fps, x264, ~10000 kbps avg
Аудио#1 Russian: 48 kHz, AC3, 3/2 (L,C,R,l,r) + LFE ch, ~384 kbps avg |Двухголосый закадровый, Кубик в Кубе|
Аудио#2 English: 48 kHz, AC3, 3/2 (L,C,R,l,r) + LFE ch, ~640 kbps avg
скриншот  скриншот  скриншот  скриншот  

Общее
Уникальный идентификатор : 183550550468710238825909456928531320376 (0x8A168CD65851280689B19CC39BA48E38)
Полное имя : Knives.Out.2019.1080p.mkv
Формат : Matroska
Версия формата : Version 2
Размер файла : 10,0 Гбайт
Продолжительность : 2 ч. 10 м.
Общий поток : 11,0 Мбит/сек
Название фильма : Достать ножи / Knives Out (2019)
Дата кодирования : UTC 2020-05-08 15:49:15
Программа кодирования : mkvmerge v5.8.0 ('No Sleep / Pillow') built on Sep 2 2012 15:37:04
Библиотека кодирования : libebml v1.2.3 + libmatroska v1.3.0

Видео
Идентификатор : 1
Формат : AVC
Формат/Информация : Advanced Video Codec
Профиль формата : High@L4.1
Настройки формата : CABAC / 4 Ref Frames
Параметр CABAC формата : Да
Параметр RefFrames формата : 4 кадра
Идентификатор кодека : V_MPEG4/ISO/AVC
Продолжительность : 2 ч. 10 м.
Битрейт : 10000 Кбит/сек
Ширина : 1920 пикселей
Высота : 1038 пикселей
Соотношение сторон : 1,85:1
Режим частоты кадров : Постоянный
Частота кадров : 23,976 (24000/1001) кадра/сек
Цветовое пространство : YUV
Субдискретизация насыщенности : 4:2:0
Битовая глубина : 8 бит
Тип развёртки : Прогрессивная
Бит/(Пиксели*Кадры) : 0.209
Размер потока : 8,90 Гбайт (89%)
Библиотека кодирования : x264 core 142 r2431+42 c69a006 tMod [8-bit@all X86_64]
Настройки программы : cabac=1 / ref=4 / deblock=1:-2:-2 / analyse=0x3:0x133 / me=umh / subme=10 / psy=1 / fade_compensate=0.00 / psy_rd=1.00:0.00 / mixed_ref=1 / me_range=32 / chroma_me=1 / trellis=2 / 8x8dct=1 / cqm=0 / deadzone=21,11 / fast_pskip=0 / chroma_qp_offset=-2 / threads=24 / lookahead_threads=4 / sliced_threads=0 / nr=0 / decimate=0 / interlaced=0 / bluray_compat=0 / constrained_intra=0 / fgo=0 / bframes=8 / b_pyramid=2 / b_adapt=2 / b_bias=0 / direct=3 / weightb=1 / open_gop=0 / weightp=2 / keyint=240 / keyint_min=23 / scenecut=40 / intra_refresh=0 / rc_lookahead=50 / rc=2pass / mbtree=0 / bitrate=10000 / ratetol=1.0 / qcomp=0.60 / qpmin=0:0:0 / qpmax=51:51:51 / qpstep=4 / cplxblur=20.0 / qblur=0.5 / vbv_maxrate=50000 / vbv_bufsize=62500 / nal_hrd=none / filler=0 / ip_ratio=1.40 / pb_ratio=1.30 / aq=3:0.80 / aq-sensitivity=10.00 / aq-factor=1.00:1.00:1.00 / aq2=0 / aq3=0
Язык : English
Default : Да
Forced : Нет

Аудио #1
Идентификатор : 2
Формат : AC-3
Формат/Информация : Audio Coding 3
Коммерческое название : Dolby Digital
Идентификатор кодека : A_AC3
Продолжительность : 2 ч. 10 м.
Вид битрейта : Постоянный
Битрейт : 384 Кбит/сек
Каналы : 6 каналов
ChannelLayout : L R C LFE Ls Rs
Частота : 48,0 КГц
Частота кадров : 31,250 кадров/сек (1536 SPF)
Метод сжатия : С потерями
Размер потока : 358 Мбайт (3%)
Заголовок : Кубик в Кубе
Язык : Russian
ServiceKind/String : Complete Main
Default : Да
Forced : Нет

Аудио #2
Идентификатор : 3
Формат : AC-3
Формат/Информация : Audio Coding 3
Коммерческое название : Dolby Digital
Идентификатор кодека : A_AC3
Продолжительность : 2 ч. 10 м.
Вид битрейта : Постоянный
Битрейт : 640 Кбит/сек
Каналы : 6 каналов
ChannelLayout : L R C LFE Ls Rs
Частота : 48,0 КГц
Частота кадров : 31,250 кадров/сек (1536 SPF)
Метод сжатия : С потерями
Размер потока : 596 Мбайт (6%)
Язык : English
ServiceKind/String : Complete Main
Default : Нет
Forced : Нет

Текст #1
Идентификатор : 4
Формат : UTF-8
Идентификатор кодека : S_TEXT/UTF8
Идентификатор кодека/Информация : UTF-8 Plain Text
Заголовок : Forced
Язык : Russian
Default : Да
Forced : Нет

Текст #2
Идентификатор : 5
Формат : UTF-8
Идентификатор кодека : S_TEXT/UTF8
Идентификатор кодека/Информация : UTF-8 Plain Text
Заголовок : Full
Язык : Russian
Default : Нет
Forced : Нет

Текст #3
Идентификатор : 6
Формат : UTF-8
Идентификатор кодека : S_TEXT/UTF8
Идентификатор кодека/Информация : UTF-8 Plain Text
Заголовок : Full
Язык : English
Default : Нет
Forced : Нет

Текст #4
Идентификатор : 7
Формат : UTF-8
Идентификатор кодека : S_TEXT/UTF8
Идентификатор кодека/Информация : UTF-8 Plain Text
Заголовок : SDH
Язык : English
Default : Нет
Forced : Нет

Меню
00:00:00.000 : en:Chapter 1
00:05:28.036 : en:Chapter 2
00:21:23.115 : en:Chapter 3
00:31:48.698 : en:Chapter 4
00:44:30.960 : en:Chapter 5
00:49:52.364 : en:Chapter 6
00:54:53.582 : en:Chapter 7
00:58:39.766 : en:Chapter 8
01:07:09.776 : en:Chapter 9
01:12:43.943 : en:Chapter 10
01:22:30.279 : en:Chapter 11
01:28:49.741 : en:Chapter 12
01:34:44.429 : en:Chapter 13
01:40:47.458 : en:Chapter 14
01:43:43.634 : en:Chapter 15
02:01:45.131 : en:Chapter 16

piratbit.org



Скачать Достать ножи через торрент https://c.radikal.ru/c43/2005/2b/c6dce4d6b54d.png Скачать фильм Достать ножи через торрент бесплантно в хорошем качестве Описание: События фильма «Достать ножи» начинают свое развитие после юбилея востребованного автора, работающего в жанре криминального ... 10 10 8
Info! Золотая раздача, скачанное не засчитывается.
Торрент: Зарегистрирован [2020-05-08 19:06] · скачан: 170 раз
Статус: √ проверено
Размер: 10.03 GB
Как cкачать? Как скачать Достать ножи через торрент | qTorrent

% Раздел Тема Автор DL S | L
Фильмы 2019-2020 [DVDrip, WEB-DLRip, HDrip] (DUB, MVO) [ 2.12 GB ] Достать ножи / Knives Out [2019 BDRip] - Twi7ter Скачать
242 | 7
Фильмы 2019-2020 [DVDrip, WEB-DLRip, HDrip] (DUB, MVO) [ 799 MB ] Достать ножи / Knives Out [2019 HDRip] bober100 Скачать
6 | 0
Фильмы 2019-2020 [DVDrip, WEB-DLRip, HDrip] (DUB, MVO) [ 1.46 GB ] Достать ножи / Knives Out [2019 BDRip] - Twi7ter Скачать
161 | 2
Ultra HD (UHD: 2K, 4K, 8K) — видео сверхвысокой чёткости [ 68.35 GB ] Достать ножи / Knives Out [2019 UHD BDRemux 2160p ] +MVO [HDrezka Studio] +AVO [М. Яроцкий ] bober100 Скачать
1 | 0
Ultra HD (UHD: 2K, 4K, 8K) — видео сверхвысокой чёткости [ 31.31 GB ] Достать ножи / Knives Out [2019 UHD BDRip 2160p] MVO [HDRezka Studio] sheker187 Скачать
1 | 0
Ultra HD (UHD: 2K, 4K, 8K) — видео сверхвысокой чёткости [ 59.2 GB ] Достать ножи / Knives Out [2019 UHD BDRemux 2160p] +MVO [HDrezka Studio] +AVO [М. Яроцкий ] bober100 Скачать
2 | 0
T Фильмы с украинским озвучиванием [ 2 GB ] Достать ножи / Ножі наголо / Knives Out [2019 WEB-DLRip] [Ukr DUB] killermax2013 Скачать
2 | 0

28-11-2019 20:33  

Отключить всю рекламу на сайте

    Дорогой пользователь! Огромная просьба, поблагодарите релизера, оцените раздачу и оставьте свои комментарий, если Вы скачали Достать ножи через торрент бесплатно! Внесите свою лепту в развитие PiratBit!
    Комментировать посты могут только пользователи прошедшие не сложную регистрацию
    Показать сообщения:    

    Достать ножи через торрент
    Скачать бесплатно Достать ножи
    Достать ножи скачать торрент
    Достать ножи смотреть онлайн
    Cкачать фильм Достать ножи бесплатно
    Достать ножи скачать торрент в хорошем качестве
    Достать ножи смотреть онлайн бесплатно в хорошем качестве


    Вы не можете начинать темы
    Вы не можете отвечать на сообщения
    Вы не можете редактировать свои сообщения
    Вы не можете удалять свои сообщения
    Вы не можете голосовать в опросах
    Вы не можете прикреплять файлы к сообщениям
    Вы можете скачивать файлы