Ссылка на приватное зеркало нашего сайта всего за 1$. Внимание количество ограничено!!!

2 сезон

iTunes

1 сезон

1

iTunes

iTunes

iTunes

1 сезон

RePack

30

ИГРА 18+

pack

ВАЖНО

!!Акция!!

Alien_RageХит недели

RePack

MK11
pack

Забери бонус

RePack

jed

!!Акция!!

Alien_Rage

RePack

fifa19

RePack

Assassins Creed: Odyssey

RePack

NEED FOR SPEED™ PAYBACK

4 сезон

9 сезон

Бесстыжие 9 сезон

Все сериалы

все сериалы на PB.wtf

RePack

FAR CRY 5
  

С шиком / A Touch of Class (Мелвин Фрэнк) [1973 г., Комедия, мелодрама, BDRip 720p, Профессиональный (многоголосый), Авторский (А.Михалёв)] от ExKinoRay piratbit.org

С шиком через торрент piratbit.org

Размер: 6.22 GB | Добавлен: 5 мес. 15 д. назад | Торрент скачан:4 раза
Скачать  

10-05-2020 06:22 С шиком Скачать торрент  

С шиком / A Touch of Class
Год выпуска: 1973
Страна: Великобритания
Жанр: Комедия, мелодрама
Продолжительность: 01:46:02
Перевод: Профессиональный (многоголосый), Авторский (А.Михалёв)
Субтитры: Русские (full), английские (SDH, в т.ч. и на песни)

Режиссер: Мелвин Фрэнк

Премьера в мире: 25 мая 1973

rating

В ролях: Джордж Сигал, Гленда Джексон, Пол Сорвино, К Кэллан, Сек Линдер, Майкл Элвин, Мэри Барклай, Надим Савалха, Иэн Томпсон, Давид де Кейзер, Гей Браун, Ребекка Де Лос Рейс, Фелипе Солано, Стюарт Дэймон, Дэвид Хили, Дональд Хьюлетт, Эдвард Кемп, Найджел Кингсли, Майкл МакВей, Джон Стэрлэнд

Описание: Лента о двусмысленных ситуациях, в которые попадает женатый англичанин Стивен Блэкбёрн, пытающийся беззаботно провести время вне семьи и его своеобразном романе-соперничестве с незамужней Викки Аллессио.

Качество: BDRip 720p
Формат: MKV
Видео кодек: MPEG4
Аудио кодек: AC3
Видео: MPEG-4 AVC, 6500 Кбит/с, 1280x544, 23.976 кадра/сек
Аудио#1: Русский (AC3, 2 ch, 192 Кбит/с, 48 КГц)
Аудио#2: Русский (AC3, 2 ch, 192 Кбит/с, 48 КГц)
Аудио#3: Английский (DTS, 2 ch, 1509 Кбит/с, 48 КГц)
Релиз от:
x264 [info]: profile High, level 4.1
x264 [info]: frame I:1113 Avg QP:16.60 size:132806
x264 [info]: frame P:30165 Avg QP:18.97 size: 56163
x264 [info]: frame B:121272 Avg QP:19.99 size: 27438
-----
Общее
Уникальный идентификатор : 237540496121055449508401892873106967917 (0xB2B4A2ACBF4CBDB6A09E0897335D4D6D)
Полное имя : D:\ExKinoRay\Touch.Class.1973.BDRip720p.ExKinoRay.mkv
Формат : Matroska
Версия формата : Version 2
Размер файла : 6,22 Гбайт
Продолжительность : 1 ч. 46 м.
Общий поток : 8396 Кбит/сек
Дата кодирования : UTC 2020-05-10 04:30:41
Программа кодирования : mkvmerge v7.8.0 ('River Man') 32bit built on Apr 3 2015 12:11:22
Библиотека кодирования : libebml v1.3.1 + libmatroska v1.4.2

Видео
Идентификатор : 1
Формат : AVC
Формат/Информация : Advanced Video Codec
Профиль формата : High@L4.1
Настройки формата : CABAC / 12 Ref Frames
Параметр CABAC формата : Да
Параметр RefFrames формата : 12 кадров
Идентификатор кодека : V_MPEG4/ISO/AVC
Продолжительность : 1 ч. 46 м.
Битрейт : 6500 Кбит/сек
Ширина : 1280 пикселей
Высота : 544 пикселя
Соотношение сторон : 2,35:1
Режим частоты кадров : Постоянный
Частота кадров : 23,976 (24000/1001) кадра/сек
Цветовое пространство : YUV
Субдискретизация насыщенности : 4:2:0
Битовая глубина : 8 бит
Тип развёртки : Прогрессивная
Бит/(Пиксели*Кадры) : 0.389
Размер потока : 4,69 Гбайт (75%)
Библиотека кодирования : x264 core 152 r2851 ba24899
Настройки программы : cabac=1 / ref=12 / deblock=1:-3:-2 / analyse=0x3:0x113 / me=umh / subme=10 / psy=1 / psy_rd=1.00:0.10 / mixed_ref=1 / me_range=32 / chroma_me=1 / trellis=2 / 8x8dct=1 / cqm=0 / deadzone=21,11 / fast_pskip=0 / chroma_qp_offset=-3 / threads=6 / lookahead_threads=1 / sliced_threads=0 / nr=0 / decimate=0 / interlaced=0 / bluray_compat=0 / constrained_intra=0 / bframes=12 / b_pyramid=2 / b_adapt=2 / b_bias=0 / direct=3 / weightb=1 / open_gop=0 / weightp=2 / keyint=240 / keyint_min=23 / scenecut=40 / intra_refresh=0 / rc=2pass / mbtree=0 / bitrate=6500 / ratetol=1.0 / qcomp=0.60 / qpmin=0 / qpmax=69 / qpstep=4 / cplxblur=20.0 / qblur=0.5 / ip_ratio=1.40 / pb_ratio=1.30 / aq=3:1.00
Язык : English
Default : Да
Forced : Нет
Цветовой диапазон : Limited
Основные цвета : BT.709
Характеристики трансфера : BT.709
Коэффициенты матрицы : BT.709

Аудио #1
Идентификатор : 2
Формат : AC-3
Формат/Информация : Audio Coding 3
Коммерческое название : Dolby Digital
Идентификатор кодека : A_AC3
Продолжительность : 1 ч. 46 м.
Вид битрейта : Постоянный
Битрейт : 192 Кбит/сек
Каналы : 2 канала
Channel layout : L R
Частота : 48,0 КГц
Частота кадров : 31,250 кадров/сек (1536 SPF)
Битовая глубина : 16 бит
Метод сжатия : С потерями
Размер потока : 146 Мбайт (2%)
Заголовок : НТВ
Язык : Russian
ServiceKind/String : Complete Main
Default : Да
Forced : Нет

Аудио #2
Идентификатор : 3
Формат : AC-3
Формат/Информация : Audio Coding 3
Коммерческое название : Dolby Digital
Идентификатор кодека : A_AC3
Продолжительность : 1 ч. 46 м.
Вид битрейта : Постоянный
Битрейт : 192 Кбит/сек
Каналы : 2 канала
Channel layout : L R
Частота : 48,0 КГц
Частота кадров : 31,250 кадров/сек (1536 SPF)
Битовая глубина : 16 бит
Метод сжатия : С потерями
Размер потока : 146 Мбайт (2%)
Заголовок : А.Михалев
Язык : Russian
ServiceKind/String : Complete Main
Default : Нет
Forced : Нет

Аудио #3
Идентификатор : 4
Формат : DTS
Формат/Информация : Digital Theater Systems
Идентификатор кодека : A_DTS
Продолжительность : 1 ч. 46 м.
Вид битрейта : Постоянный
Битрейт : 1509 Кбит/сек
Каналы : 2 канала
Channel layout : L R
Частота : 48,0 КГц
Частота кадров : 93,750 кадра/сек (512 SPF)
Битовая глубина : 24 бит
Метод сжатия : С потерями
Размер потока : 1,12 Гбайт (18%)
Язык : English
Default : Нет
Forced : Нет

Текст #1
Идентификатор : 5
Формат : UTF-8
Идентификатор кодека : S_TEXT/UTF8
Идентификатор кодека/Информация : UTF-8 Plain Text
Язык : Russian
Default : Нет
Forced : Нет

Текст #2
Идентификатор : 6
Формат : UTF-8
Идентификатор кодека : S_TEXT/UTF8
Идентификатор кодека/Информация : UTF-8 Plain Text
Язык : English
Default : Нет
Forced : Нет

Меню
00:00:00.000 : en:
00:02:13.633 : en:
00:03:48.144 : en:
00:07:34.494 : en:
00:09:54.218 : en:
00:13:06.785 : en:
00:16:59.518 : en:
00:18:50.253 : en:
00:24:15.453 : en:
00:29:02.031 : en:
00:34:07.503 : en:
00:37:49.266 : en:
00:41:33.908 : en:
00:44:27.164 : en:
00:47:47.364 : en:
00:53:19.195 : en:
00:58:12.238 : en:
01:02:01.676 : en:
01:05:06.694 : en:
01:09:38.841 : en:
01:12:41.648 : en:
01:16:33.546 : en:
01:19:34.603 : en:
01:21:41.854 : en:
01:24:23.390 : en:
01:30:27.421 : en:
01:32:28.376 : en:
01:36:25.863 : en:
01:40:44.621 : en:
01:45:27.571 : en:
01:46:01.396 : en:

piratbit.org



Скачать С шиком через торрент http://c.radikal.ru/c11/2005/e1/6b2303469b51.jpg Скачать фильм С шиком через торрент бесплантно в хорошем качестве Описание: Лента о двусмысленных ситуациях, в которые попадает женатый англичанин Стивен Блэкбёрн, пытающийся беззаботно провести время вне ... 5 10 1
Торрент: Зарегистрирован [2020-05-10 06:22] · скачан: 4 раз
Статус: √ проверено
Размер: 6.22 GB
Как cкачать? Как скачать С шиком через торрент | qTorrent

28-11-2019 20:33  

Отключить всю рекламу на сайте

    Дорогой пользователь! Огромная просьба, поблагодарите релизера, оцените раздачу и оставьте свои комментарий, если Вы скачали С шиком через торрент бесплатно! Внесите свою лепту в развитие PiratBit!
    Комментировать посты могут только пользователи прошедшие не сложную регистрацию
    Показать сообщения:    

    С шиком через торрент
    Скачать бесплатно С шиком
    С шиком скачать торрент
    С шиком смотреть онлайн
    Cкачать фильм С шиком бесплатно
    С шиком скачать торрент в хорошем качестве
    С шиком смотреть онлайн бесплатно в хорошем качестве


    Вы не можете начинать темы
    Вы не можете отвечать на сообщения
    Вы не можете редактировать свои сообщения
    Вы не можете удалять свои сообщения
    Вы не можете голосовать в опросах
    Вы не можете прикреплять файлы к сообщениям
    Вы можете скачивать файлы