Marvel's Avengers Deluxe Edition (супер цена) 159р. Внимание количество ограничено!!!

2 сезон

iTunes

iTunes

1

iTunes

iTunes

iTunes

WEBRip

iTunes

30
pack

Новость дня

ВАЖНО

!!Акция!!

Alien_RageХит недели

RePack

Horizon Zero Dawn

ИГРА 18+

pack

RePack

jed

!!Акция!!

Alien_Rage

RePack

fifa19

RePack

Assassins Creed: Odyssey

RePack

NEED FOR SPEED™ PAYBACK

4 сезон

9 сезон

Бесстыжие 9 сезон

Все сериалы

все сериалы на PB.wtf

RePack

FAR CRY 5
  

Джентльмены / The Gentlemen (Гай Ричи) [2019, Боевик, комедия, криминал, BDRip 1080p] DVO [Кубик в Кубе] piratbit.org

Джентльмены через торрент piratbit.org

Раздают: 16 [ 98 KB/s ]
Размер: 7.39 GB | Добавлен: 4 мес. 7 д. назад | Торрент скачан:384 раза
Скачать  

11-05-2020 20:14 Джентльмены Скачать торрент  

Джентльмены | The Gentlemen
Год выпуска: 2019
Страна: США
Студия: Miramax Films, STX Films, Toff Guy Films
Жанр: Боевик, комедия, криминал
Продолжительность: 01:53:40
Перевод: Профессиональный (двухголосый закадровый) | Кубик в Кубе
Субтитры: Русские (Forced, Full)

Режиссер: Гай Ричи

rating

В ролях: Мэттью МакКонахи, Чарли Ханнэм, Мишель Докери, Джереми Стронг, Лайн Рени, Колин Фаррелл, Генри Голдинг, Том Ву, Чиди Аджуфо, Хью Грант

Описание: Талантливый выпускник Оксфорда, применив свой уникальный ум и невиданную дерзость, придумал нелегальную схему обогащения с использованием поместья обедневшей английской аристократии. Однако когда он решает продать свой бизнес влиятельному клану миллиардеров из США, на его пути встают не менее обаятельные, но жесткие джентльмены. Намечается обмен любезностями, который точно не обойдется без перестрелок и парочки несчастных случаев.

Качество: BDRip 1080p
Формат: MKV

Видео: 1920x804 at 23.976 fps, x264, ~9119 kbps avg
Аудио Russian: 48 kHz, AC3, 2/0 (L,R) ch, ~192 kbps avg |Двухголосый закадровый, Кубик в Кубе|
скриншот  скриншот  скриншот  скриншот  

Общее
Уникальный идентификатор : 254553774140642139012577782372158491695 (0xBF81460B22DD6BA389EF76D1758D4C2F)
Полное имя : The.Gentlemen.2019.BDRip.1080p.mkv
Формат : Matroska
Версия формата : Version 2
Размер файла : 7,39 Гбайт
Продолжительность : 1 ч. 53 м.
Общий поток : 9306 Кбит/сек
Название фильма : Джентльмены / The Gentlemen (2019)
Дата кодирования : UTC 2020-05-11 19:37:49
Программа кодирования : mkvmerge v5.8.0 ('No Sleep / Pillow') built on Sep 2 2012 15:37:04
Библиотека кодирования : libebml v1.2.3 + libmatroska v1.3.0

Видео
Идентификатор : 1
Формат : AVC
Формат/Информация : Advanced Video Codec
Профиль формата : High@L4.1
Настройки формата : CABAC / 5 Ref Frames
Параметр CABAC формата : Да
Параметр RefFrames формата : 5 кадров
Идентификатор кодека : V_MPEG4/ISO/AVC
Продолжительность : 1 ч. 53 м.
Битрейт : 9119 Кбит/сек
Ширина : 1920 пикселей
Высота : 804 пикселя
Соотношение сторон : 2,40:1
Режим частоты кадров : Постоянный
Частота кадров : 23,976 (24000/1001) кадра/сек
Цветовое пространство : YUV
Субдискретизация насыщенности : 4:2:0
Битовая глубина : 8 бит
Тип развёртки : Прогрессивная
Бит/(Пиксели*Кадры) : 0.246
Размер потока : 7,09 Гбайт (96%)
Библиотека кодирования : x264 core 152 r2851 ba24899
Настройки программы : cabac=1 / ref=5 / deblock=1:0:0 / analyse=0x3:0x113 / me=umh / subme=11 / psy=1 / psy_rd=1.00:0.00 / mixed_ref=1 / me_range=32 / chroma_me=1 / trellis=2 / 8x8dct=1 / cqm=0 / deadzone=21,11 / fast_pskip=0 / chroma_qp_offset=-2 / threads=12 / lookahead_threads=2 / sliced_threads=0 / nr=0 / decimate=0 / interlaced=0 / bluray_compat=0 / constrained_intra=0 / bframes=9 / b_pyramid=2 / b_adapt=2 / b_bias=0 / direct=3 / weightb=1 / open_gop=0 / weightp=2 / keyint=250 / keyint_min=23 / scenecut=40 / intra_refresh=0 / rc_lookahead=40 / rc=2pass / mbtree=0 / bitrate=9119 / ratetol=1.0 / qcomp=0.69 / qpmin=0 / qpmax=69 / qpstep=4 / cplxblur=20.0 / qblur=0.5 / vbv_maxrate=50000 / vbv_bufsize=62500 / nal_hrd=none / filler=0 / ip_ratio=1.40 / pb_ratio=1.30 / aq=3:0.80
Язык : English
Default : Да
Forced : Нет

Аудио
Идентификатор : 2
Формат : AC-3
Формат/Информация : Audio Coding 3
Коммерческое название : Dolby Digital
Идентификатор кодека : A_AC3
Продолжительность : 1 ч. 53 м.
Вид битрейта : Постоянный
Битрейт : 192 Кбит/сек
Каналы : 2 канала
ChannelLayout : L R
Частота : 48,0 КГц
Частота кадров : 31,250 кадров/сек (1536 SPF)
Метод сжатия : С потерями
Размер потока : 156 Мбайт (2%)
Заголовок : Кубик в Кубе
Язык : Russian
ServiceKind/String : Complete Main
Default : Да
Forced : Нет

Текст #1
Идентификатор : 3
Формат : UTF-8
Идентификатор кодека : S_TEXT/UTF8
Идентификатор кодека/Информация : UTF-8 Plain Text
Заголовок : Forced
Язык : Russian
Default : Да
Forced : Нет

Текст #2
Идентификатор : 4
Формат : UTF-8
Идентификатор кодека : S_TEXT/UTF8
Идентификатор кодека/Информация : UTF-8 Plain Text
Заголовок : Full
Язык : Russian
Default : Нет
Forced : Нет

Меню
00:00:00.000 : en:Chapter 01
00:04:27.100 : en:Chapter 02
00:08:16.413 : en:Chapter 03
00:13:42.780 : en:Chapter 04
00:19:21.494 : en:Chapter 05
00:24:49.988 : en:Chapter 06
00:30:23.530 : en:Chapter 07
00:37:17.944 : en:Chapter 08
00:41:55.430 : en:Chapter 09
00:48:38.874 : en:Chapter 10
00:56:51.199 : en:Chapter 11
01:03:34.102 : en:Chapter 12
01:08:45.038 : en:Chapter 13
01:14:18.204 : en:Chapter 14
01:19:05.991 : en:Chapter 15
01:24:30.023 : en:Chapter 16
01:29:24.776 : en:Chapter 17
01:34:21.114 : en:Chapter 18
01:40:11.130 : en:Chapter 19
01:48:37.511 : en:Chapter 20

piratbit.org



Скачать Джентльмены через торрент https://i4.imageban.ru/out/2020/05/11/42ba0902cf6178bd59c29cab3d18a484.jpg Скачать фильм Джентльмены через торрент бесплантно в хорошем качестве Описание: Талантливый выпускник Оксфорда, применив свой уникальный ум и невиданную дерзость, придумал нелегальную схему обогащения с ... 9.5 10 17
Info! Золотая раздача, скачанное не засчитывается.
Торрент: Зарегистрирован [2020-05-12 02:17] · скачан: 384 раз
Статус: √ проверено
Размер: 7.39 GB
Как cкачать? Как скачать Джентльмены через торрент | qTorrent

% Раздел Тема Автор DL S | L
Официальные cаундтреки к зарубежным фильмам [ 106 MB ] OST - Джентльмены / The Gentlemen 2019 / MP3 / 320 kbps / Score bober100 Скачать
3 | 0
Фильмы 2019-2020 [DVDrip, WEB-DLRip, HDrip] (DUB, MVO) [ 2.82 GB ] Джентльмены / The Gentlemen [2019 WEB-DLRip-AVC] () + [AVO] killermax2013 Скачать
22 | 0
Фильмы (HD 720p, 1080p) (48-60 fps) [ 3.93 GB ] Джентльмены / The Gentlemen [2019 . BDRip 1080p / 60 FPS AVO Яроцкий] dd2d3 Скачать
8 | 1
Фильмы 2019-2020 [DVDrip, WEB-DLRip, HDrip] (DUB, MVO) [ 2.2 GB ] Джентльмены / The Gentlemen [2019 BDRip-AVC] Dub sokol_ok Скачать
785 | 20
Фильмы 2019-2020 [DVDrip, WEB-DLRip, HDrip] (DUB, MVO) [ 1.37 GB ] Джентльмены / The Gentlemen [2019 BDRip-AVC] Dub sokol_ok Скачать
360 | 8
Фильмы с авторской озвучкой [ 1.46 GB ] Джентльмены / The Gentlemen [2019 WEB-DLRip] [AVO] killermax2013 Скачать
9 | 0
Фильмы 2019-2020 (Звук TS, Cam, VO, DVO) [ 2.89 GB ] Джентльмены / The Gentlemen [2019 HDRip-AVC] [DVO] killermax2013 Скачать
20 | 0

28-11-2019 20:33  

Отключить всю рекламу на сайте

12-05-2020 10:07 Джентльмены Скачать торрент  

Супер кино! piratbit.org



    Дорогой пользователь! Огромная просьба, поблагодарите релизера, оцените раздачу и оставьте свои комментарий, если Вы скачали Джентльмены через торрент бесплатно! Внесите свою лепту в развитие PiratBit!
    Комментировать посты могут только пользователи прошедшие не сложную регистрацию
    Показать сообщения:    

    Джентльмены через торрент
    Скачать бесплатно Джентльмены
    Джентльмены скачать торрент
    Джентльмены смотреть онлайн
    Cкачать фильм Джентльмены бесплатно
    Джентльмены скачать торрент в хорошем качестве
    Джентльмены смотреть онлайн бесплатно в хорошем качестве


    Вы не можете начинать темы
    Вы не можете отвечать на сообщения
    Вы не можете редактировать свои сообщения
    Вы не можете удалять свои сообщения
    Вы не можете голосовать в опросах
    Вы не можете прикреплять файлы к сообщениям
    Вы можете скачивать файлы