Доктор Стрэндж

Лицензия

Добыча

Дубляж

Дом дракона

1 сезон

Тор

Дубляж

В эфире

Дубляж

Там, где раки поют

MVO

Властелин колец

1 сезон

Ultimate

pack

Рекомендуем

30

Пиратка

ВАЖНО

ВАЖНО

Ghostwire

Пиратка

jed

RePack

nioh2

RePack

RDR2

RePack

NEED FOR SPEED™ PAYBACK

RePack

скачать торрент

Кинопоиск HD

Острые козырьки 6 сезон

6 сезон

FAR CRY 6

RePack

скачать торрент

Лицензия

скачать торрент

MVO

1

1 сезон

скачать торрент

1 сезон

скачать торрент

Лицензия

  

Лицо со шрамом / Capone (Джош Транк) [2020, Драма, криминал, биография, BDRip-AVC] MVO [HDRezka] - ExKinoRay

Лицо со шрамом через торрент piratbit.org

Размер: 2.43 GB | Добавлен: 2 года 5 мес. назад | Торрент скачан:238 раз
Смотреть онлайн | Скачать   

15-05-2020 13:34 Лицо со шрамом Скачать торрент  

Лицо со шрамом / Capone
Год выпуска: 2020
Страна: Канада, США / BRON Studios, A Band Apart, Addictive Pictures
Жанр: Драма, криминал, биография
Продолжительность: 01:43:57
Перевод: Профессиональный многоголосый [HDRezka]
Субтитры: Русские (Forced, Full (Focs)), английские

Режиссер: Джош Транк

rating

В ролях: Линда Карделлини, Том Харди, Ноэль Фишер, Кайл МакЛахлан, Мэтт Диллон, Кэтрин Нардуччи, Джек Лауден, Ал Сапиенза, Джино Кафарелли, Мэйсон Гуччионе

Описание: Вернувшись из тюрьмы, Аль Капоне продолжает оставаться предметом пристального внимания ФБР. Ведь при аресте так и не была найдена крупная сумма денег — итог всей криминальной деятельности знаменитого мафиози. По всему дому расставлены жучки, под подозрением каждый член большой семьи Капоне. Удастся ли спецслужбам добиться от теряющего память гангстера информации, где и при каких обстоятельствах он спрятал деньги?

Без рекламы!

Качество: BDRip-AVC
Формат: MKV
Видео кодек: H.264
Аудио кодек: AC3
Видео: MPEG-4 AVC, 2455 Кбит/с, 1024x424
Аудио#1: Русский (AC3, 6 ch, 448 Кбит/с) MVO (HDRezka)
Аудио#2: Английский (АС3, 6 ch, 448 Кбит/с) Original

Релиз от: VK релиз-группы
Общее
Уникальный идентификатор : 241258932334904770788670619464590071998 (0xB580C7BC11E3FBD0BCA9308CAB6A98BE)
Полное имя : D:РаздачаLico.So.Shramom.2020.BDRip-AVC.ExKinoRay.mkv
Формат : Matroska
Версия формата : Version 4 / Version 2
Размер файла : 2,43 Гбайт
Продолжительность : 1 ч. 43 м.
Общий поток : 3354 Кбит/сек
Название фильма : Capone.2020.BDRip-AVC.grab777 & ExKinoRay
Дата кодирования : UTC 2020-05-29 17:12:21
Программа кодирования : mkvmerge v7.3.0 ('Nouages') 64bit built on Oct 22 2014 18:53:34
Библиотека кодирования : libebml v1.3.0 + libmatroska v1.4.1

Видео
Идентификатор : 1
Формат : AVC
Формат/Информация : Advanced Video Codec
Профиль формата : High@L4.1
Настройки формата : CABAC / 12 Ref Frames
Параметр CABAC формата : Да
Параметр RefFrames формата : 12 кадров
Идентификатор кодека : V_MPEG4/ISO/AVC
Продолжительность : 1 ч. 43 м.
Битрейт : 2455 Кбит/сек
Ширина : 1024 пикселя
Высота : 424 пикселя
Соотношение сторон : 2,40:1
Режим частоты кадров : Переменный
Частота кадров : 23,976 кадра/сек
Цветовое пространство : YUV
Субдискретизация насыщенности : 4:2:0
Битовая глубина : 8 бит
Тип развёртки : Прогрессивная
Бит/(Пиксели*Кадры) : 0.236
Размер потока : 1,78 Гбайт (73%)
Заголовок : Rip by grab777
Библиотека кодирования : x264 core 148 r2665M a01e339
Настройки программы : cabac=1 / ref=12 / deblock=1:-2:-2 / analyse=0x3:0x113 / me=umh / subme=10 / psy=1 / psy_rd=1.00:0.15 / mixed_ref=1 / me_range=32 / chroma_me=1 / trellis=2 / 8x8dct=1 / cqm=0 / deadzone=21,11 / fast_pskip=1 / chroma_qp_offset=-3 / threads=5 / lookahead_threads=1 / sliced_threads=0 / nr=0 / decimate=1 / interlaced=0 / bluray_compat=0 / constrained_intra=0 / bframes=10 / b_pyramid=2 / b_adapt=2 / b_bias=0 / direct=3 / weightb=1 / open_gop=0 / weightp=2 / keyint=230 / keyint_min=23 / scenecut=40 / intra_refresh=0 / rc_lookahead=40 / rc=crf / mbtree=0 / crf=16.5 / qcomp=0.60 / qpmin=0 / qpmax=69 / qpstep=4 / vbv_maxrate=30000 / vbv_bufsize=40000 / crf_max=0.0 / nal_hrd=none / filler=0 / ip_ratio=1.40 / pb_ratio=1.30 / aq=1:1.00
Язык : English
Default : Да
Forced : Нет
Цветовой диапазон : Limited
Основные цвета : BT.709
Характеристики трансфера : BT.709
Коэффициенты матрицы : BT.709

Аудио #1
Идентификатор : 2
Формат : AC-3
Формат/Информация : Audio Coding 3
Параметр Endianness формата : Big
Идентификатор кодека : A_AC3
Продолжительность : 1 ч. 43 м.
Вид битрейта : Постоянный
Битрейт : 448 Кбит/сек
Каналы : 6 каналов
Расположение каналов : Front: L C R, Side: L R, LFE
Частота : 48,0 КГц
Частота кадров : 31,250 кадров/сек (1536 SPF)
Битовая глубина : 16 бит
Метод сжатия : С потерями
Размер потока : 333 Мбайт (13%)
Заголовок : MVO (HDRezka)
Язык : Russian
Default : Да
Forced : Да

Аудио #2
Идентификатор : 3
Формат : AC-3
Формат/Информация : Audio Coding 3
Параметр Endianness формата : Big
Идентификатор кодека : A_AC3
Продолжительность : 1 ч. 43 м.
Вид битрейта : Постоянный
Битрейт : 448 Кбит/сек
Каналы : 6 каналов
Расположение каналов : Front: L C R, Side: L R, LFE
Частота : 48,0 КГц
Частота кадров : 31,250 кадров/сек (1536 SPF)
Битовая глубина : 16 бит
Метод сжатия : С потерями
Размер потока : 333 Мбайт (13%)
Заголовок : Original
Язык : English
Default : Нет
Forced : Нет

Текст #1
Идентификатор : 4
Формат : UTF-8
Идентификатор кодека : S_TEXT/UTF8
Идентификатор кодека/Информация : UTF-8 Plain Text
Продолжительность : 1 ч. 38 м.
Битрейт : 2 бит/сек
ElementCount : 39
Размер потока : 1,70 Кбайт (0%)
Заголовок : forced
Язык : Russian
Default : Нет
Forced : Да

Текст #2
Идентификатор : 5
Формат : UTF-8
Идентификатор кодека : S_TEXT/UTF8
Идентификатор кодека/Информация : UTF-8 Plain Text
Продолжительность : 1 ч. 38 м.
Битрейт : 62 бит/сек
ElementCount : 1154
Размер потока : 45,0 Кбайт (0%)
Заголовок : Focs
Язык : Russian
Default : Нет
Forced : Нет

Текст #3
Идентификатор : 6
Формат : UTF-8
Идентификатор кодека : S_TEXT/UTF8
Идентификатор кодека/Информация : UTF-8 Plain Text
Продолжительность : 1 ч. 36 м.
Битрейт : 41 бит/сек
ElementCount : 1202
Размер потока : 29,1 Кбайт (0%)
Язык : English
Default : Нет
Forced : Нет

Меню
00:00:00.000 : :Chapter 01
00:12:44.054 : :Chapter 02
00:31:39.564 : :Chapter 03
00:55:52.515 : :Chapter 04
01:17:14.129 : :Chapter 05
01:32:59.031 : :Chapter 06




Скачать Лицо со шрамом через торрент https://pic1.kartinco.top/images/12/jpwm1.jpg Скачать, смотреть онлайн Лицо со шрамом бесплантно в хорошем качестве Описание: Вернувшись из тюрьмы, Аль Капоне продолжает оставаться предметом пристального внимания ФБР. Ведь при аресте так и не была найдена ... 9.6 10 14
Info! Золотая раздача, скачанное не засчитывается.
Торрент: Зарегистрирован [2020-05-29 18:59] · скачан: 238 раз
Статус: √ проверено
Размер: 2.43 GB
Как cкачать? Как скачать Лицо со шрамом через торрент | UTorrent

% Раздел Тема Автор DL S | L
Фильмы [HD 720p, 1080p] (Хороший звук DUB, MVO) [ 11.56 GB ] Лицо со шрамом / Capone | HDRezka Studio | 1080p Enigma2010 Скачать
2 | 0



Последний раз редактировалось: Mr. Grab (2020-05-29 18:59), всего редактировалось 1 раз

28-11-2019 20:33  


Отключить вcю реклaмy на сайте, в т.ч. и в плеере онлайн просмотра!

30-05-2020 11:12 Лицо со шрамом Скачать торрент  

Фильм откровенное фуфло...



    Дорогой пользователь! Огромная просьба, поблагодарите релизера, оцените раздачу и оставьте свои комментарий, если Вы скачали Лицо со шрамом через торрент бесплатно!!
    Комментировать посты могут только пользователи прошедшие не сложную регистрацию
    Показать сообщения:    


    Лицо со шрамом через торрент
    Скачать бесплатно Лицо со шрамом
    Лицо со шрамом скачать торрент
    Лицо со шрамом смотреть онлайн
    Cкачать фильм Лицо со шрамом бесплатно
    Лицо со шрамом скачать торрент в хорошем качестве
    Лицо со шрамом смотреть онлайн бесплатно в хорошем качестве
    Вы не можете начинать темы
    Вы не можете отвечать на сообщения
    Вы не можете редактировать свои сообщения
    Вы не можете удалять свои сообщения
    Вы не можете голосовать в опросах
    Вы не можете прикреплять файлы к сообщениям
    Вы можете скачивать файлы
    Лицо со шрамом / Capone [2020, Драма, криминал, биография, BDRip-AVC] MVO [HDRezka] - ExKinoRay смотреть онлайн, скачать торрент picoco.icu