Доктор Стрэндж

Лицензия

Добыча

Дубляж

Уэнсдэй

1 сезон

Тор

Дубляж

В эфире

Дубляж

Там, где раки поют

MVO

Властелин колец

1 сезон

Deluxe

pack

Рекомендуем

30

Пиратка

ВАЖНО

ВАЖНО

Ghostwire

Пиратка

jed

RePack

nioh2

RePack

RDR2

RePack

NEED FOR SPEED™ PAYBACK

RePack

скачать торрент

Кинопоиск HD

Острые козырьки 6 сезон

6 сезон

FAR CRY 6

RePack

скачать торрент

Лицензия

скачать торрент

MVO

1

1 сезон

скачать торрент

1 сезон

скачать торрент

Лицензия

  

Вальгалла: Рагнарёк / Valhalla (Фенар Ахмад) [2019, Фэнтези, триллер, приключения, BDRip-AVC] Дубляж [iTunes]

Вальгалла: Рагнарёк через торрент piratbit.org

Размер: 2.12 GB | Добавлен: 2 года 6 мес. назад | Торрент скачан:125 раз
Смотреть онлайн | Скачать   

17-05-2020 01:57 Вальгалла: Рагнарёк Скачать торрент  

Вальгалла: Рагнарёк | Valhalla
Год выпуска: 2019
Страна: Дания, Норвегия, Швеция, Исландия
Студия: Bulldozer Film, Danmarks Radio (DR), Det Danske Filminstitut, Film i Skåne, Nordisk Film A/S
Жанр: Фэнтези, триллер, приключения
Продолжительность: 01:44:55
Перевод: Дублированный | iTunes
Субтитры: Немецкие (Full), английские (Full)

Режиссер: Фенар Ахмад

rating

В ролях: Роланд Мёллер, Дульфи Аль-Джабури, Сесилия Лоффредо, Саксо Мольтке-Лет, Асбьёрн Крог Ниссен, Стине Фишер Кристенсен, Саломе Гуннарсдоттир, Якоб Ульрик Ломанн, Патриция Шуманн, Андреас Йессен

Описание: Близится Рагнарек, и великие боги Асгарда собирают последние силы перед битвой. Двое смертных из Мидгарда вместе с Локи и Тором прибывают в небесный чертог накануне сражения. Вот-вот пробудится чудовищный волк Фенрир и древние исполины из Ётунхейма осадят стены Вальгаллы. Мир обречен. Но можно ли изменить предначертанное?

Качество: BDRip-AVC
Формат: MKV

Видео: 1024x426 (2,40:1), 24 fps, MPEG-4 AVC ~ 2074 Kbps avg, 0.198 bit/pixel
Аудио#1: AC3, 48 kHz, 6 ch, ~384.00 kbps avg | русский | iTunes
Аудио#2: AC3, 48 kHz, 6 ch, ~448.00 kbps avg | датский | Оригинал
скриншот  скриншот  скриншот  скриншот  скриншот  

Общее
Уникальный идентификатор : 122192892411279056150727771022723301401 (0x5BED7EBB8194043C547CEA8A5DD6C019)
Полное имя : Valhalla.2019.iT.BDRip.2.12Gb.x264.mkv
Формат : Matroska
Версия формата : Version 4
Размер файла : 2,12 Гбайт
Продолжительность : 1 ч. 44 м.
Общий поток : 2899 Кбит/сек
Название фильма : Вальгалла: Рагнарёк / Valhalla (2019)
Дата кодирования : UTC 2020-05-16 15:10:46
Программа кодирования : mkvmerge v46.0.0 ('No Deeper Escape') 64-bit
Библиотека кодирования : libebml v1.3.10 + libmatroska v1.5.2
Обложка : Yes
Attachments : cover.jpg

Видео
Идентификатор : 1
Формат : AVC
Формат/Информация : Advanced Video Codec
Профиль формата : High@L4.1
Настройки формата : CABAC / 10 Ref Frames
Параметр CABAC формата : Да
Параметр RefFrames формата : 10 кадров
Идентификатор кодека : V_MPEG4/ISO/AVC
Продолжительность : 1 ч. 44 м.
Битрейт : 2074 Кбит/сек
Ширина : 1024 пикселя
Высота : 426 пикселей
Соотношение сторон : 2,40:1
Режим частоты кадров : Постоянный
Частота кадров : 24,000 кадра/сек
Цветовое пространство : YUV
Субдискретизация насыщенности : 4:2:0
Битовая глубина : 8 бит
Тип развёртки : Прогрессивная
Бит/(Пиксели*Кадры) : 0.198
Размер потока : 1,51 Гбайт (71%)
Заголовок : #stillet
Библиотека кодирования : x264 core 152 r2851bm ba24899
Настройки программы : cabac=1 / ref=10 / deblock=1:-3:-3 / analyse=0x3:0x113 / me=umh / subme=11 / psy=1 / psy_rd=1.00:0.15 / mixed_ref=1 / me_range=32 / chroma_me=1 / trellis=2 / 8x8dct=1 / cqm=0 / deadzone=21,11 / fast_pskip=0 / chroma_qp_offset=-3 / threads=8 / lookahead_threads=3 / sliced_threads=0 / nr=0 / decimate=0 / interlaced=0 / bluray_compat=0 / constrained_intra=0 / bframes=12 / b_pyramid=2 / b_adapt=2 / b_bias=0 / direct=3 / weightb=1 / open_gop=0 / weightp=2 / keyint=240 / keyint_min=24 / scenecut=40 / intra_refresh=0 / rc=2pass / mbtree=0 / bitrate=2074 / ratetol=1.0 / qcomp=0.60 / qpmin=0 / qpmax=69 / qpstep=4 / cplxblur=20.0 / qblur=0.5 / ip_ratio=1.40 / pb_ratio=1.30 / aq=1:1.00
Язык : English
Default : Да
Forced : Нет

Аудио #1
Идентификатор : 2
Формат : AC-3
Формат/Информация : Audio Coding 3
Коммерческое название : Dolby Digital
Идентификатор кодека : A_AC3
Продолжительность : 1 ч. 44 м.
Вид битрейта : Постоянный
Битрейт : 384 Кбит/сек
Каналы : 6 каналов
ChannelLayout : L R C LFE Ls Rs
Частота : 48,0 КГц
Частота кадров : 31,250 кадров/сек (1536 SPF)
Метод сжатия : С потерями
Размер потока : 288 Мбайт (13%)
Заголовок : iTunes
Язык : Russian
Default : Да
Forced : Да

Аудио #2
Идентификатор : 3
Формат : AC-3
Формат/Информация : Audio Coding 3
Коммерческое название : Dolby Digital
Идентификатор кодека : A_AC3
Продолжительность : 1 ч. 44 м.
Вид битрейта : Постоянный
Битрейт : 448 Кбит/сек
Каналы : 6 каналов
ChannelLayout : L R C LFE Ls Rs
Частота : 48,0 КГц
Частота кадров : 31,250 кадров/сек (1536 SPF)
Метод сжатия : С потерями
Размер потока : 336 Мбайт (15%)
Заголовок : Original
Язык : Danish
Default : Нет
Forced : Нет

Текст #1
Идентификатор : 4
Формат : UTF-8
Идентификатор кодека : S_TEXT/UTF8
Идентификатор кодека/Информация : UTF-8 Plain Text
Продолжительность : 1 ч. 38 м.
Битрейт : 27 бит/сек
ElementCount : 660
Размер потока : 19,5 Кбайт (0%)
Заголовок : Full
Язык : German
Default : Нет
Forced : Нет

Текст #2
Идентификатор : 5
Формат : UTF-8
Идентификатор кодека : S_TEXT/UTF8
Идентификатор кодека/Информация : UTF-8 Plain Text
Продолжительность : 1 ч. 44 м.
Битрейт : 21 бит/сек
ElementCount : 509
Размер потока : 16,8 Кбайт (0%)
Заголовок : Full
Язык : English
Default : Нет
Forced : Нет

Меню
00:00:00.000 : de:Chapter 01
00:08:18.625 : de:Chapter 02
00:18:20.583 : de:Chapter 03
00:27:47.500 : de:Chapter 04
00:34:20.750 : de:Chapter 05
00:43:48.333 : de:Chapter 06
00:51:48.208 : de:Chapter 07
00:59:24.166 : de:Chapter 08
01:07:50.875 : de:Chapter 09
01:15:47.333 : de:Chapter 10
01:25:12.833 : de:Chapter 11
01:34:55.041 : de:Chapter 12




Скачать Вальгалла: Рагнарёк через торрент https://i112.fastpic.ru/big/2020/0516/a3/7897893b52a7a7ccc308cdef3fa437a3.jpg Скачать, смотреть онлайн Вальгалла: Рагнарёк бесплантно в хорошем качестве Описание: Близится Рагнарек, и великие боги Асгарда собирают последние силы перед битвой. Двое смертных из Мидгарда вместе с Локи и Тором ... 10 10 6
Торрент: Зарегистрирован [2020-05-17 01:57] · скачан: 125 раз
Статус: √ проверено
Размер: 2.12 GB
Как cкачать? Как скачать Вальгалла: Рагнарёк через торрент | UTorrent

% Раздел Тема Автор DL S | L
Фильмы 2019-2020 [DVDrip, WEB-DLRip, HDrip] (DUB, MVO) [ 2.38 GB ] Вальгалла: Рагнарёк / Valhalla | iTunes | BDRip-AVC Mr. Grab Скачать
2 | 0
Фильмы 2019-2020 [DVDrip, WEB-DLRip, HDrip] (DUB, MVO) [ 743 MB ] Вальгалла: Рагнарёк / Valhalla | iTunes | HDRip bober100 Скачать
1 | 0
Фильмы (WEB-DL 720p, 1080p) [ 3.68 GB ] Вальгалла: Рагнарёк / Valhalla | iTunes | 1080p bober100 Скачать
1 | 0
Фильмы 2019-2020 [DVDrip, WEB-DLRip, HDrip] (DUB, MVO) [ 1.41 GB ] Вальгалла: Рагнарёк / Valhalla | iTunes | BDRip bober100 Скачать
1 | 0

28-11-2019 20:33  


Отключить вcю реклaмy на сайте, в т.ч. и в плеере онлайн просмотра!

    Дорогой пользователь! Огромная просьба, поблагодарите релизера, оцените раздачу и оставьте свои комментарий, если Вы скачали Вальгалла: Рагнарёк через торрент бесплатно!!
    Комментировать посты могут только пользователи прошедшие не сложную регистрацию
    Показать сообщения:    


    Вальгалла: Рагнарёк через торрент
    Скачать бесплатно Вальгалла: Рагнарёк
    Вальгалла: Рагнарёк скачать торрент
    Вальгалла: Рагнарёк смотреть онлайн
    Cкачать фильм Вальгалла: Рагнарёк бесплатно
    Вальгалла: Рагнарёк скачать торрент в хорошем качестве
    Вальгалла: Рагнарёк смотреть онлайн бесплатно в хорошем качестве
    Вы не можете начинать темы
    Вы не можете отвечать на сообщения
    Вы не можете редактировать свои сообщения
    Вы не можете удалять свои сообщения
    Вы не можете голосовать в опросах
    Вы не можете прикреплять файлы к сообщениям
    Вы можете скачивать файлы
    Вальгалла: Рагнарёк / Valhalla [2019, Фэнтези, триллер, приключения, BDRip-AVC] Дубляж [iTunes] смотреть онлайн, скачать торрент picoco.icu