Доктор Стрэндж

Лицензия

Добыча

Дубляж

Уэнсдэй

1 сезон

Тор

Дубляж

В эфире

Дубляж

Там, где раки поют

MVO

Властелин колец

1 сезон

Deluxe

pack

Рекомендуем

30

Пиратка

ВАЖНО

ВАЖНО

Ghostwire

Пиратка

jed

RePack

nioh2

RePack

RDR2

RePack

NEED FOR SPEED™ PAYBACK

RePack

скачать торрент

Кинопоиск HD

Острые козырьки 6 сезон

6 сезон

FAR CRY 6

RePack

скачать торрент

Лицензия

скачать торрент

MVO

1

1 сезон

скачать торрент

1 сезон

скачать торрент

Лицензия

  

Вальгалла: Рагнарёк / Valhalla (Фенар Ахмад) [2019, Фэнтези, триллер, приключения, BDRip-AVC] Дубляж [iTunes] - ExKinoRay

Вальгалла: Рагнарёк через торрент piratbit.org

Размер: 2.38 GB | Добавлен: 2 года 6 мес. назад | Торрент скачан:331 раз
Смотреть онлайн | Скачать   

17-05-2020 05:34 Вальгалла: Рагнарёк Скачать торрент  

Вальгалла: Рагнарёк / Valhalla
Год выпуска: 2019
Страна: Дания, Норвегия, Швеция, Исландия / Bulldozer Film, Danmarks Radio (DR), Det Danske Filminstitut, Film i Skåne, Nordisk Film A/S
Жанр: Фэнтези, триллер, приключения
Продолжительность: 01:44:55
Перевод: Дублированный [iTunes]
Субтитры: Английские

Режиссер: Фенар Ахмад

rating

В ролях: Роланд Мёллер, Дульфи Аль-Джабури, Сесилия Лоффредо, Саксо Мольтке-Лет, Асбьёрн Крог Ниссен, Стине Фишер Кристенсен, Саломе Гуннарсдоттир, Якоб Ульрик Ломанн, Патриция Шуманн, Андреас Йессен

Описание: Близится Рагнарек, и великие боги Асгарда собирают последние силы перед битвой. Двое смертных из Мидгарда вместе с Локи и Тором прибывают в небесный чертог накануне сражения. Вот-вот пробудится чудовищный волк Фенрир и древние исполины из Ётунхейма осадят стены Вальгаллы. Мир обречен. Но можно ли изменить предначертанное?

Качество: BDRip-AVC
Формат: MKV
Видео кодек: H.264
Аудио кодек: AC3
Видео: MPEG-4 AVC, 2482 Кбит/с, 1024x424
Аудио#1: Русский (AC3, 6 ch, 384 Кбит/с) Дубляж (iTunes)
Аудио#2: Немецкий (AC3, 6 ch, 384 Кбит/с) Original

Релиз от: VK релиз-группы
Общее
Уникальный идентификатор : 201854754969414867720508119675134968467 (0x97DBCFCBA745E5B9BD85B43FCAEE8293)
Полное имя : D:\Раздача\Valgalla.2019.BDRip-AVC.ExKinoRay.mkv
Формат : Matroska
Версия формата : Version 4 / Version 2
Размер файла : 2,38 Гбайт
Продолжительность : 1 ч. 44 м.
Общий поток : 3252 Кбит/сек
Название фильма : Valhalla 2019 BDRip-AVC.grab777 & ExKinoRay
Дата кодирования : UTC 2020-05-17 04:19:39
Программа кодирования : mkvmerge v7.3.0 ('Nouages') 64bit built on Oct 22 2014 18:53:34
Библиотека кодирования : libebml v1.3.0 + libmatroska v1.4.1

Видео
Идентификатор : 1
Формат : AVC
Формат/Информация : Advanced Video Codec
Профиль формата : High@L4.1
Настройки формата : CABAC / 12 Ref Frames
Параметр CABAC формата : Да
Параметр RefFrames формата : 12 кадров
Идентификатор кодека : V_MPEG4/ISO/AVC
Продолжительность : 1 ч. 44 м.
Битрейт : 2482 Кбит/сек
Ширина : 1024 пикселя
Высота : 424 пикселя
Соотношение сторон : 2,40:1
Соотношение сторон в оригинале : 2,40:1
Режим частоты кадров : Переменный
Частота кадров : 24,000 кадра/сек
Цветовое пространство : YUV
Субдискретизация насыщенности : 4:2:0
Битовая глубина : 8 бит
Тип развёртки : Прогрессивная
Бит/(Пиксели*Кадры) : 0.238
Размер потока : 1,82 Гбайт (76%)
Заголовок : Rip by grab777
Библиотека кодирования : x264 core 148 r2665M a01e339
Настройки программы : cabac=1 / ref=12 / deblock=1:-2:-2 / analyse=0x3:0x113 / me=umh / subme=10 / psy=1 / psy_rd=1.00:0.15 / mixed_ref=1 / me_range=32 / chroma_me=1 / trellis=2 / 8x8dct=1 / cqm=0 / deadzone=21,11 / fast_pskip=1 / chroma_qp_offset=-3 / threads=5 / lookahead_threads=1 / sliced_threads=0 / nr=0 / decimate=1 / interlaced=0 / bluray_compat=0 / constrained_intra=0 / bframes=10 / b_pyramid=2 / b_adapt=2 / b_bias=0 / direct=3 / weightb=1 / open_gop=0 / weightp=2 / keyint=240 / keyint_min=24 / scenecut=40 / intra_refresh=0 / rc_lookahead=40 / rc=crf / mbtree=0 / crf=17.0 / qcomp=0.60 / qpmin=0 / qpmax=69 / qpstep=4 / vbv_maxrate=30000 / vbv_bufsize=40000 / crf_max=0.0 / nal_hrd=none / filler=0 / ip_ratio=1.40 / pb_ratio=1.30 / aq=1:1.00
Язык : German
Default : Да
Forced : Нет
Цветовой диапазон : Limited
Основные цвета : BT.709
Характеристики трансфера : BT.709
Коэффициенты матрицы : BT.709

Аудио #1
Идентификатор : 2
Формат : AC-3
Формат/Информация : Audio Coding 3
Параметр Endianness формата : Big
Идентификатор кодека : A_AC3
Продолжительность : 1 ч. 44 м.
Вид битрейта : Постоянный
Битрейт : 384 Кбит/сек
Каналы : 6 каналов
Расположение каналов : Front: L C R, Side: L R, LFE
Частота : 48,0 КГц
Частота кадров : 31,250 кадров/сек (1536 SPF)
Битовая глубина : 16 бит
Метод сжатия : С потерями
Размер потока : 288 Мбайт (12%)
Заголовок : Дубляж (iTunes)
Язык : Russian
ServiceKind/String : Complete Main
Default : Да
Forced : Да

Аудио #2
Идентификатор : 3
Формат : AC-3
Формат/Информация : Audio Coding 3
Параметр Endianness формата : Big
Идентификатор кодека : A_AC3
Продолжительность : 1 ч. 44 м.
Вид битрейта : Постоянный
Битрейт : 384 Кбит/сек
Каналы : 6 каналов
Расположение каналов : Front: L C R, Side: L R, LFE
Частота : 48,0 КГц
Частота кадров : 31,250 кадров/сек (1536 SPF)
Битовая глубина : 16 бит
Метод сжатия : С потерями
Размер потока : 288 Мбайт (12%)
Заголовок : Original
Язык : German
ServiceKind/String : Complete Main
Default : Нет
Forced : Нет

Текст
Идентификатор : 4
Формат : UTF-8
Идентификатор кодека : S_TEXT/UTF8
Идентификатор кодека/Информация : UTF-8 Plain Text
Продолжительность : 1 ч. 44 м.
Битрейт : 21 бит/сек
ElementCount : 509
Размер потока : 16,8 Кбайт (0%)
Язык : English
Default : Нет
Forced : Нет

Меню
00:00:00.000 : :Глава 1
00:08:18.625 : :Глава 2
00:18:20.583 : :Глава 3
00:27:47.500 : :Глава 4
00:34:20.750 : :Глава 5
00:43:48.333 : :Глава 6
00:51:48.208 : :Глава 7
00:59:24.167 : :Глава 8
01:07:50.875 : :Глава 9
01:15:47.333 : :Глава 10
01:25:12.833 : :Глава 11
01:34:55.042 : :Глава 12




Скачать Вальгалла: Рагнарёк через торрент https://pic1.kartinco.top/images/12/vds8k.jpg Скачать, смотреть онлайн Вальгалла: Рагнарёк бесплантно в хорошем качестве Описание: Близится Рагнарек, и великие боги Асгарда собирают последние силы перед битвой. Двое смертных из Мидгарда вместе с Локи и Тором ... 5.4 10 8
Торрент: Зарегистрирован [2020-05-17 05:34] · скачан: 331 раз
Статус: √ проверено
Размер: 2.38 GB
Как cкачать? Как скачать Вальгалла: Рагнарёк через торрент | UTorrent

28-11-2019 20:33  


Отключить вcю реклaмy на сайте, в т.ч. и в плеере онлайн просмотра!

17-05-2020 06:24 Вальгалла: Рагнарёк Скачать торрент  

фильм конченый, не вздумайте смотреть



17-05-2020 10:58 Вальгалла: Рагнарёк Скачать торрент  

mokaq писал(а):

фильм конченый, не вздумайте смотреть

Согласен!



17-05-2020 16:08 Вальгалла: Рагнарёк Скачать торрент  

gurt писал(а):

mokaq писал(а):

фильм конченый, не вздумайте смотреть

Согласен!

Спасибо за совет,так и сделаю:)



18-05-2020 20:57 Вальгалла: Рагнарёк Скачать торрент  

Фильм просто Бомба бомба взорванная в деревенском сортире



24-05-2020 06:15 Вальгалла: Рагнарёк Скачать торрент  

То еще говнецо.



    Дорогой пользователь! Огромная просьба, поблагодарите релизера, оцените раздачу и оставьте свои комментарий, если Вы скачали Вальгалла: Рагнарёк через торрент бесплатно!!
    Комментировать посты могут только пользователи прошедшие не сложную регистрацию
    Показать сообщения:    


    Вальгалла: Рагнарёк через торрент
    Скачать бесплатно Вальгалла: Рагнарёк
    Вальгалла: Рагнарёк скачать торрент
    Вальгалла: Рагнарёк смотреть онлайн
    Cкачать фильм Вальгалла: Рагнарёк бесплатно
    Вальгалла: Рагнарёк скачать торрент в хорошем качестве
    Вальгалла: Рагнарёк смотреть онлайн бесплатно в хорошем качестве
    Вы не можете начинать темы
    Вы не можете отвечать на сообщения
    Вы не можете редактировать свои сообщения
    Вы не можете удалять свои сообщения
    Вы не можете голосовать в опросах
    Вы не можете прикреплять файлы к сообщениям
    Вы можете скачивать файлы
    Вальгалла: Рагнарёк / Valhalla [2019, Фэнтези, триллер, приключения, BDRip-AVC] Дубляж [iTunes] - ExKinoRay смотреть онлайн, скачать торрент picoco.icu