Anonymous, добрый день, присоединяйтесь к нам в Telegram!, здесь всегда актуальный адрес сайта, оперативная поддержка и многое другое!

>

5.5

iTunes

7.4

iTunes

7.9

iTunes

1

7.7

1 сезон

6.8

iTunes

7.3

1 сезон

13

6.7

1 сезон

8.3

RePack

30

ULTIMATE

pack

9.9

Лицензия

ВАЖНО

ИГРА 18+

pack

7.3

RePack

MK11

7.7

RePack

jed

7.8

RePack

fifa19

8.5

RePack

RDR2

RePack

NEED FOR SPEED™ PAYBACK

4 сезон

9 сезон

Бесстыжие 9 сезон

Все сериалы

все сериалы на PB.wtf

RePack

FAR CRY 5

Anonymous, добрый день, мы катастрофически не успеваем собрать деньги на оплату серверов, помогите нам пожалуйста 5,10,15р., для нас важна любая помощь . В качестве благодарности мы отключим Вам всю рекламу на сайте (укажите свой ник в строку Ваше имя)!

×
  
Magnet ссылка

Первобытное / Портал Юрского Периода / Primeval / (Сезон: 4, серии 7 из 7) (Марк Эверест, Цилла Уэр) [2011 г., Фантастика, фэнтези, боевик, приключения, HDTV 720p](Gravi-TV) piratbit.org

Первобытное через торрент piratbit.org

Размер: 8.13 GB | Добавлен: 10 лет назад | Торрент скачан:34 раза
Смотреть онлайн Первобытное | Скачать    Ребята, помогите собрать деньги на оплату серверов!!!

30-01-2011 23:58 Первобытное Скачать торрент  

Первобытное / Портал Юрского Периода / Primeval
(Сезон 4, 7 серий из 7)


Год выпуска: 2011
Страна: Великобритания «Impossiblepictures Ltd.»
Жанр: Фантастика, фэнтези, боевик, приключения
Продолжительность: ~ 46 мин.
Перевод: Любительский двухголосый, закадровый(Gravi-TV)
Субтитры:английские, русские(opel)

Режиссер: Марк Эверест, Цилла Уэр
Продюссер: Тим Хайнс, Адриан Ходжес
Сценарий: Тим Хайнс, Адриан Ходжес

Бюджет: £6 000 000
Премьера в мире: 10 февраля 2007

Рейтинг PG - Детям до 13 лет просмотр не желателен!!! В ролях: Andrew-Lee Potts (Connor Temple), Hannah Spearritt (Abby Maitland), Lucy Brown (Claudia Brown and Jenny Lewis), Ben Miller (James Lester), Ciarán McMenamin (Matt Anderson), Ruth Kearney (Jess Parker), Alexander Siddig (Philip Burton).




Описание: XXI век. В Великобритании начинают происходить необъяснимые вещи: в разных уголках страны люди замечают животных, которые по утверждению палеонтологов вымерли миллионы лет назад. Британское правительство создает тайное научное агентство во главе с Джеймсом Лестером. Члены этой организации выясняют, что в природе существуют некие загадочные дыры между современным и доисторическим мирами, которые они называют "аномалиями". Целью ученых является обнаружение этих "аномалий" и нейтрализация проникающих через них опасных для человечества существ…

Качество: HDTV 720p
Формат: MKV
Видео кодек: H.264
Аудио кодек: AC3
Видео: AVC at 3 135 Kbps 1280 x 720 (1.778) at 25.000 fps 0.136 bit/pixel
Аудио Rus: AC-3 at 192 Kbps 2 channels, 48.0 KHz;
Аудио Eng: AC-3 at 256 Kbps 2 channels, 48.0 KHz;
Subs:SRT
Релиз от:

Перевод: opel (mitrakov)
Озвучка: kiitos, Chertenok
Монтаж и сведение звука: kiitos
E:\ЗАГРУЗКА\Первобытное 4 cезон\Primeval.s04e01.rus.eng.720p.mkv
General
Complete name : E:\ЗАГРУЗКА\Первобытное 4 cезон\Primeval.s04e01.rus.eng.720p.mkv
Format : Matroska
File size : 1.15 GiB
Duration : 46mn 6s
Overall bit rate : 3 585 Kbps
Encoded date : UTC 2011-01-05 19:31:13
Writing application : mkvmerge v3.3.0 ('Language') built on Mar 24 2010 14:59:24
Writing library : libebml v0.8.0 + libmatroska v0.9.0
Video #1
ID : 1
Format : AVC
Format/Info : Advanced Video Codec
Format profile : High@L3.1
Format settings, CABAC : Yes
Format settings, ReFrames : 4 frames
Muxing mode : Container profile=Unknown@3.1
Codec ID : V_MPEG4/ISO/AVC
Duration : 46mn 6s
Bit rate : 3 066 Kbps
Nominal bit rate : 3 135 Kbps
Width : 1 280 pixels
Height : 720 pixels
Display aspect ratio : 16:9
Frame rate : 25.000 fps
Resolution : 8 bits
Colorimetry : 4:2:0
Scan type : Progressive
Bits/(Pixel*Frame) : 0.133
Stream size : 1 011 MiB (86%)
Writing library : x264 core 112 r1834 a51816a
Encoding settings : cabac=1 / ref=3 / deblock=1:0:0 / analyse=0x3:0x113 / me=hex / subme=6 / psy=1 / psy_rd=1.00:0.00 / mixed_ref=0 / me_range=16 / chroma_me=1 / trellis=1 / 8x8dct=1 / cqm=0 / deadzone=21,11 / fast_pskip=0 / chroma_qp_offset=-2 / threads=18 / sliced_threads=0 / nr=0 / decimate=1 / interlaced=0 / constrained_intra=0 / bframes=3 / b_pyramid=2 / b_adapt=1 / b_bias=0 / direct=3 / weightb=1 / open_gop=0 / weightp=0 / keyint=250 / keyint_min=25 / scenecut=40 / intra_refresh=0 / rc=2pass / mbtree=0 / bitrate=3135 / ratetol=1.0 / qcomp=0.60 / qpmin=0 / qpmax=51 / qpstep=4 / cplxblur=20.0 / qblur=0.5 / ip_ratio=1.40 / pb_ratio=1.30 / aq=1:1.00
Audio #2
ID : 2
Format : AC-3
Format/Info : Audio Coding 3
Codec ID : A_AC3
Duration : 46mn 6s
Bit rate mode : Constant
Bit rate : 192 Kbps
Channel(s) : 2 channels
Channel positions : L R
Sampling rate : 48.0 KHz
Stream size : 63.3 MiB (5%)
Language : Russian
Audio #3
ID : 3
Format : AC-3
Format/Info : Audio Coding 3
Codec ID : A_AC3
Duration : 46mn 6s
Bit rate mode : Constant
Bit rate : 256 Kbps
Channel(s) : 2 channels
Channel positions : L R
Sampling rate : 48.0 KHz
Stream size : 84.4 MiB (7%)
Language : English
Text #4
ID : 4
Format : UTF-8
Codec ID : S_TEXT/UTF8
Codec ID/Info : UTF-8 Plain Text
Language : Russian
Text #5
ID : 5
Format : UTF-8
Codec ID : S_TEXT/UTF8
Codec ID/Info : UTF-8 Plain Text
Language : English
Внимание! Раздача ведётся путём добавления новых серий; при каждом добавлении создётся новый торрент. Чтобы начать докачку новой серии, пользователям необходимо сделать следующее:
(1) остановить скачивание,
(2) удалить старый торрент у себя из клиента (старые серии удалять не надо),
(3) скачать новый торрент и запустить его у себя в клиенте вместо старого, при этом указать клиенту путь в старую папку куда и должно происходить скачивание новых серий.
Ваш клиент при этом должен произвести хеширование (проверку) старой папки (если не производит сам - помогите ему сделать это), и будет докачивать только те серии которых у вас ещё нет. Старые серии при этом не удаляются, а продолжают раздаваться!
Eсли вы уже удалили старые серии, то предотвратить повторную закачку старых серий можно, отжав галочку в соответсвующих местах при запуске нового торрента.
Добавлена 7 серия. Перезагрузите торрент.
Не забываем комментировать и говорить Cпасибо!
Для вас пустяк, а мне приятно
piratbit.org



Скачать Первобытное через торрент http://piratbit.in.ua/1b81087c8f929ea99efb216d58785e45.jpg Скачать, смотреть онлайн Первобытное бесплантно в хорошем качестве Описание: XXI век. В Великобритании начинают происходить необъяснимые вещи: в разных уголках страны люди замечают животных, которые по ... 4.8 10 4
Info! Золотая раздача, скачанное не засчитывается.
Торрент: Зарегистрирован [2011-05-28 07:04] · скачан: 34 раз
Статус: √ проверено
Размер: 8.13 GB
Как cкачать? Как скачать Первобытное через торрент | UTorrent

% Раздел Тема Автор DL S | L
Зарубежные сериалы [ 7.58 GB ] Портал юрского периода: Новый мир / Первобытное: Новый мир / Primeval: New World / Сезон: 1 / Серии: 1-13 [2012 Научная HDTVRip] MVO wekotila Скачать
1 | 0
Зарубежные сериалы [ 13.99 GB ] Портал Юрского периода: Новый мир / Первобытное: Новый мир / Primeval: New world / Сезон: 1 / Серии: 1-11 [2012 Научная HDTVRip 720p] MVO + Original Stargate_Universe Скачать
1 | 0
Зарубежные сериалы [ 783 MB ] Первобытное / Primeval [ HDTVRip][rus] IceDevil71 Скачать
1 | 0


Последний раз редактировалось: lyokaa (2011-05-28 07:04), всего редактировалось 4 раз(а)

28-11-2019 20:33  

Отключить всю рекламу на сайте

14-02-2011 20:19 Первобытное Скачать торрент  

Добавлена 6 серия. Перезагрузите торрент.piratbit.org



28-05-2011 07:05 Первобытное Скачать торрент  

Добавлена 7 серия, финальная.piratbit.org



31-10-2011 08:21 Первобытное Скачать торрент  

РАздайтеpiratbit.org



    Дорогой пользователь! Огромная просьба, поблагодарите релизера, оцените раздачу и оставьте свои комментарий, если Вы скачали Первобытное через торрент бесплатно!
    Комментировать посты могут только пользователи прошедшие не сложную регистрацию
    Показать сообщения:    

    Первобытное через торрент
    Скачать бесплатно Первобытное
    Первобытное скачать торрент
    Первобытное смотреть онлайн
    Cкачать фильм Первобытное бесплатно
    Первобытное скачать торрент в хорошем качестве
    Первобытное смотреть онлайн бесплатно в хорошем качестве


    Вы не можете начинать темы
    Вы не можете отвечать на сообщения
    Вы не можете редактировать свои сообщения
    Вы не можете удалять свои сообщения
    Вы не можете голосовать в опросах
    Вы не можете прикреплять файлы к сообщениям
    Вы можете скачивать файлы