Доктор Стрэндж

Лицензия

Добыча

Дубляж

Дом дракона

1 сезон

Тор

Дубляж

В эфире

Дубляж

Там, где раки поют

MVO

Властелин колец

1 сезон

Ultimate

pack

Рекомендуем

30

Пиратка

ВАЖНО

ВАЖНО

Ghostwire

Пиратка

jed

RePack

nioh2

RePack

RDR2

RePack

NEED FOR SPEED™ PAYBACK

RePack

скачать торрент

Кинопоиск HD

Острые козырьки 6 сезон

6 сезон

FAR CRY 6

RePack

скачать торрент

Лицензия

скачать торрент

MVO

1

1 сезон

скачать торрент

1 сезон

скачать торрент

Лицензия

  

Загадочное убийство / Murder Mystery (Кайл Ньюачек) [2019, комедия, детектив, WEB-DLRip-AVC] [DVO] (Кубик в кубе)

Загадочное убийство через торрент piratbit.org

Размер: 2.16 GB | Добавлен: 2 года 6 мес. назад | Торрент скачан:271 раз
Смотреть онлайн | Скачать   

18-05-2020 19:47 Загадочное убийство Скачать торрент  

Загадочное убийство / Murder Mystery

Год выпуска: 2019
Страна: США
Жанр: комедия, детектив
Продолжительность: 1:37:47
Перевод: Профессиональный (двухголосый закадровый) Кубик в кубе
Субтитры: русские (полные), английские (полные)
Навигация по главам: нет

Режиссер: Кайл Ньюачек / Kyle Newacheck

В ролях: Адам Сэндлер /Adam Sandler/, Дженнифер Энистон /Jennifer Aniston/, Люк Эванс /Luke Evans/, Теренс Стэмп /Terence Stamp/, Джемма Артертон /Gemma Arterton/, Дэвид Уоллиамс /David Walliams/

Описание: После 15 лет брака американская супружеская пара Ник и Одри Шпиц, полицейский и парикмахерша, наконец-то отправляется в отпуск в Европу. В самолёте супруга умудряется познакомиться с английским аристократом, и тот приглашает их с мужем провести время на яхте дяди — известного миллиардера. Супруги Шпиц оказываются в высшем обществе в окружении невиданной роскоши, когда вдруг престарелого главу семейства убивают при загадочных обстоятельствах. Мотивы есть у всех присутствующих, но французский детектив решает, что главные подозреваемые — американцы, при этом большая любительница детективов Одри видит в этой ситуации главное приключение своей жизни.


Качество видео: WEB-DLRip-AVC
Формат: MKV
Видео кодек: H.264
Аудио кодек: AC3
Видео: 1152x576, 24,000 fps, 2286 kbps
Аудио: AC3, DD 5.1, 448 kbps, 48 kHz (Кубик в кубе)
Аудио: AC3, DD 5.1, 448 kbps, 48 kHz (Оригинальная англоязычная озвучка)
Субтитры: Русские (полные), Английские (полные)

Скачать: SAMPLE 37.00MB

Доп. информация: Реклама удалена.
Формат : Matroska
Версия формата : Version 4
Размер файла : 2,16 Гбайт
Продолжительность : 1 ч. 37 м.
Общий поток : 3169 Кбит/сек
Дата кодирования : UTC 2020-05-17 19:46:41
Программа кодирования : mkvmerge v8.3.0 ('Over the Horizon') 64bit
Библиотека кодирования : libebml v1.3.1 + libmatroska v1.4.2

Видео
Идентификатор : 1
Формат : AVC
Формат/Информация : Advanced Video Codec
Профиль формата : High@L4.1
Настройки формата : CABAC / 10 Ref Frames
Параметр CABAC формата : Да
Параметр RefFrames формата : 10 кадров
Идентификатор кодека : V_MPEG4/ISO/AVC
Продолжительность : 1 ч. 37 м.
Битрейт : 2286 Кбит/сек
Ширина : 1152 пикселя
Высота : 576 пикселей
Соотношение сторон : 2,000
Режим частоты кадров : Постоянный
Частота кадров : 24,000 кадра/сек
Цветовое пространство : YUV
Субдискретизация насыщенности : 4:2:0
Битовая глубина : 8 бит
Тип развёртки : Прогрессивная
Бит/(Пиксели*Кадры) : 0.144
Размер потока : 1,55 Гбайт (72%)
Библиотека кодирования : x264 core 152 r2851 ba24899
Настройки программы : cabac=1 / ref=10 / deblock=1:-2:-1 / analyse=0x3:0x133 / me=umh / subme=10 / psy=1 / psy_rd=0.95:0.05 / mixed_ref=1 / me_range=32 / chroma_me=1 / trellis=2 / 8x8dct=1 / cqm=0 / deadzone=21,11 / fast_pskip=0 / chroma_qp_offset=-3 / threads=3 / lookahead_threads=1 / sliced_threads=0 / nr=0 / decimate=1 / interlaced=0 / bluray_compat=0 / constrained_intra=0 / bframes=9 / b_pyramid=2 / b_adapt=2 / b_bias=0 / direct=3 / weightb=1 / open_gop=0 / weightp=2 / keyint=240 / keyint_min=23 / scenecut=40 / intra_refresh=0 / rc_lookahead=80 / rc=2pass / mbtree=1 / bitrate=2286 / ratetol=1.0 / qcomp=0.60 / qpmin=10 / qpmax=51 / qpstep=4 / cplxblur=20.0 / qblur=0.5 / ip_ratio=1.40 / aq=1:1.00
Язык : English
Default : Да
Forced : Нет

Аудио #1
Идентификатор : 2
Формат : AC-3
Формат/Информация : Audio Coding 3
Коммерческое название : Dolby Digital
Идентификатор кодека : A_AC3
Продолжительность : 1 ч. 37 м.
Вид битрейта : Постоянный
Битрейт : 448 Кбит/сек
Каналы : 6 каналов
Channel layout : L R C LFE Ls Rs
Частота : 48,0 КГц
Частота кадров : 31,250 кадров/сек (1536 SPF)
Битовая глубина : 16 бит
Метод сжатия : С потерями
Размер потока : 313 Мбайт (14%)
Заголовок : Кубик в кубе
Язык : Russian
ServiceKind/String : Complete Main
Default : Да
Forced : Нет

Аудио #2
Идентификатор : 3
Формат : AC-3
Формат/Информация : Audio Coding 3
Коммерческое название : Dolby Digital
Идентификатор кодека : A_AC3
Продолжительность : 1 ч. 37 м.
Вид битрейта : Постоянный
Битрейт : 448 Кбит/сек
Каналы : 6 каналов
Channel layout : L R C LFE Ls Rs
Частота : 48,0 КГц
Частота кадров : 31,250 кадров/сек (1536 SPF)
Битовая глубина : 16 бит
Метод сжатия : С потерями
Размер потока : 313 Мбайт (14%)
Заголовок : Оригинальная дорожка
Язык : English
ServiceKind/String : Complete Main
Default : Нет
Forced : Нет

Текст #1
Идентификатор : 4
Формат : UTF-8
Идентификатор кодека : S_TEXT/UTF8
Идентификатор кодека/Информация : UTF-8 Plain Text
Продолжительность : 1 ч. 36 м.
Битрейт : 118 бит/сек
ElementCount : 1674
Размер потока : 83,9 Кбайт (0%)
Язык : Russian
Default : Нет
Forced : Нет

Текст #2
Идентификатор : 5
Формат : UTF-8
Идентификатор кодека : S_TEXT/UTF8
Идентификатор кодека/Информация : UTF-8 Plain Text
Продолжительность : 1 ч. 28 м.
Битрейт : 100 бит/сек
ElementCount : 1898
Размер потока : 64,9 Кбайт (0%)
Язык : English
Default : Нет
Forced : Нет
скриншот  скриншот  скриншот  



Скачать Загадочное убийство через торрент https://c.radikal.ru/c31/2005/47/763d425fd1af.png Скачать, смотреть онлайн Загадочное убийство бесплантно в хорошем качестве Описание: После 15 лет брака американская супружеская пара Ник и Одри Шпиц, полицейский и парикмахерша, наконец-то отправляется в отпуск в ... 10 10 3
Торрент: Зарегистрирован [2020-05-18 19:47] · скачан: 271 раз
Статус: √ проверено
Размер: 2.16 GB
Как cкачать? Как скачать Загадочное убийство через торрент | UTorrent

% Раздел Тема Автор DL S | L
Фильмы 2019-2020 [DVDrip, WEB-DLRip, HDrip] (DUB, MVO) [ 1.46 GB ] Загадочное убийство / Murder Mystery | Пифагор | DLRip-AVC sokol_ok Скачать
3 | 0
Фильмы (WEB-DL 720p, 1080p) [ 3.68 GB ] Загадочное убийство / Murder Mystery | Пифагор | 1080p bober100 Скачать
3 | 0
Фильмы (WEB-DL 720p, 1080p) [ 2.34 GB ] Загадочное убийство / Murder Mystery | Пифагор | 720p bober100 Скачать
1 | 0
Ultra HD (UHD: 2K, 4K, 8K) [ 14.57 GB ] Загадочное убийство / Murder Mystery | Пифагор | 2160p sheker187 Скачать
1 | 0
Фильмы 2019-2020 [DVDrip, WEB-DLRip, HDrip] (DUB, MVO) [ 1.46 GB ] Загадочное убийство / Murder Mystery | Пифагор | DLRip-AVC bober100 Скачать
1 | 0
Фильмы 2019-2020 [DVDrip, WEB-DLRip, HDrip] (DUB, MVO) [ 1.46 GB ] Загадочное убийство / Murder Mystery | Пифагор | DLRip bober100 Скачать
1 | 0

28-11-2019 20:33  


Отключить вcю реклaмy на сайте, в т.ч. и в плеере онлайн просмотра!

18-05-2020 22:12 Загадочное убийство Скачать торрент  

Какая озвучка лучше (смешнее) пифагор или кубик?)
Kkillermax2013 писал(а):


кубики всегда лучше, имхо



    Дорогой пользователь! Огромная просьба, поблагодарите релизера, оцените раздачу и оставьте свои комментарий, если Вы скачали Загадочное убийство через торрент бесплатно!!
    Комментировать посты могут только пользователи прошедшие не сложную регистрацию
    Показать сообщения:    


    Загадочное убийство через торрент
    Скачать бесплатно Загадочное убийство
    Загадочное убийство скачать торрент
    Загадочное убийство смотреть онлайн
    Cкачать фильм Загадочное убийство бесплатно
    Загадочное убийство скачать торрент в хорошем качестве
    Загадочное убийство смотреть онлайн бесплатно в хорошем качестве
    Вы не можете начинать темы
    Вы не можете отвечать на сообщения
    Вы не можете редактировать свои сообщения
    Вы не можете удалять свои сообщения
    Вы не можете голосовать в опросах
    Вы не можете прикреплять файлы к сообщениям
    Вы можете скачивать файлы
    Загадочное убийство / Murder Mystery [2019, комедия, детектив, WEB-DLRip-AVC] [DVO] смотреть онлайн, скачать торрент picoco.icu