Достать ножи: Стеклянная луковица

MVO

Добыча

Дубляж

Уэнсдэй

1 сезон

Тор

Дубляж

13 клиническая

1 сезон

Жестокая ночь

MVO

Одни из нас

1 сезон

Deluxe

pack

Рекомендуем

30

Пиратка

ВАЖНО

ВАЖНО

Ghostwire

Пиратка

jed

RePack

nioh2

RePack

RDR2

RePack

NEED FOR SPEED™ PAYBACK

RePack

скачать торрент

Кинопоиск HD

Острые козырьки 6 сезон

6 сезон

FAR CRY 6

RePack

скачать торрент

Лицензия

скачать торрент

MVO

1

1 сезон

скачать торрент

1 сезон

скачать торрент

Лицензия

  

Война миров / War of the Worlds (Стивен Спилберг) [2005, Фантастика, приключения, триллер, UHD BDRemux 2160p] Дубляж+DVO [Tycoon] +AVO [Гаврилов] +MVO (ukr)

Война миров через торрент piratbit.org

Размер: 53.52 GB | Добавлен: 2 года 8 мес. назад | Торрент скачан:89 раз
Смотреть онлайн | Скачать | Поддержите нас   

19-05-2020 00:34 Война миров Скачать торрент  

Война миров | War of the Worlds
Год выпуска: 2005
Страна: США
Студия: Paramount Pictures, Dreamworks Pictures, Amblin Entertaiment
Жанр: Фантастика, приключения, триллер
Продолжительность: 01:56:33
Перевод:
#1: Дублированный
#2: Профессиональный двухголосый | Tycoon
#3: Авторский | Гаврилов
Субтитры: Русские (2 x full), английские

Режиссер: Стивен Спилберг

rating

В ролях: Том Круз, Дакота Фэннинг, Миранда Отто, Джастин Чэтвин, Тим Роббинс, Морган Фримен, Рик Гонсалес, Юл Васкес, Ленни Венито, Лиза Энн Уолтер, Энн Робинсон, Джин Бэрри, Дэвид Алан Баш, Роз Абрамс, Майкл Браунли

Описание: Вольная экранизация одноимённого романа Герберта Уэллса...Действие происходит в наши дни. Рэй Феррье – вовсе не очередной спаситель мира и не новый супергерой из комиксов. Он простой человек, который просто пытается спасти свою семью в охватившем всю Землю смертельном кошмаре – нашествии враждебных пришельцев-гигантов.

Качество: UHD BDRemux 2160p
Формат: MKV

Видео: 3840x2160 at 23.976 fps, MPEG-H HEVC HDR Video, 51000 kbps avg
Аудио #01: 48 kHz, DTS, 5.1, 755 Kbps | Дублированный | RUS |
Аудио #02: 48 kHz, AC3, 5.1, 448 Kbps | Дублированный | RUS |
Аудио #03: 48 kHz, DTS-HD MA, 5.1, 4093 Kbps | Профессиональный двухголосый | RUS |
Аудио #04: 48 kHz, DTS-HD MA, 5.1, 4104 Kbps | Авторский | RUS |
Аудио #05: 48 kHz, AC3, 2.0, 192 Kbps | Профессиональный многоголосый (ICTV) | UKR |
Аудио #06: 48 kHz, TrueHD, 7.1, 4432 Kbps | Оригинал | ENG |
Аудио #07: 48 kHz, AC3, 5.1, 640 Kbps | Оригинал | ENG |
скриншот  скриншот  скриншот  скриншот  скриншот  

General
Unique ID : 110916345335889112786028601780938581549 (0x5371B6095E1BE912E97CC59458D1A62D)
Complete name : E:Video111War.of.the.Worlds.2005.BDREMUX.2160p.HDR.seleZen.mkv
Format : Matroska
Format version : Version 4
File size : 53.5 GiB
Duration : 1 h 56 min
Overall bit rate mode : Variable
Overall bit rate : 65.7 Mb/s
Movie name : War of the Worlds 2005 4K from селезень
Encoded date : UTC 2020-05-18 14:27:48
Writing application : mkvmerge v40.0.0 ('Old Town Road + Pony') 64-bit
Writing library : libebml v1.3.9 + libmatroska v1.5.2

Video
ID : 1
Format : HEVC
Format/Info : High Efficiency Video Coding
Format profile : Main 10@L5.1@High
HDR format : SMPTE ST 2086, HDR10 compatible
Codec ID : V_MPEGH/ISO/HEVC
Duration : 1 h 56 min
Bit rate : 51.0 Mb/s
Width : 3 840 pixels
Height : 2 160 pixels
Display aspect ratio : 16:9
Frame rate mode : Constant
Frame rate : 23.976 (24000/1001) FPS
Color space : YUV
Chroma subsampling : 4:2:0 (Type 2)
Bit depth : 10 bits
Bits/(Pixel*Frame) : 0.257
Stream size : 41.5 GiB (78%)
Language : English
Default : Yes
Forced : No
Color range : Limited
Color primaries : BT.2020
Transfer characteristics : PQ
Matrix coefficients : BT.2020 non-constant
Mastering display color pri : Display P3
Mastering display luminance : min: 0.0001 cd/m2, max: 1000 cd/m2
Maximum Content Light Level : 993 cd/m2
Maximum Frame-Average Light : 419 cd/m2

Audio #1
ID : 2
Format : DTS
Format/Info : Digital Theater Systems
Codec ID : A_DTS
Duration : 1 h 56 min
Bit rate mode : Constant
Bit rate : 755 kb/s
Channel(s) : 6 channels
Channel layout : C L R Ls Rs LFE
Sampling rate : 48.0 kHz
Frame rate : 93.750 FPS (512 SPF)
Bit depth : 24 bits
Compression mode : Lossy
Stream size : 629 MiB (1%)
Title : Дубляж
Language : Russian
Default : Yes
Forced : Yes

Audio #2
ID : 3
Format : AC-3
Format/Info : Audio Coding 3
Commercial name : Dolby Digital
Codec ID : A_AC3
Duration : 1 h 56 min
Bit rate mode : Constant
Bit rate : 448 kb/s
Channel(s) : 6 channels
Channel layout : L R C LFE Ls Rs
Sampling rate : 48.0 kHz
Frame rate : 31.250 FPS (1536 SPF)
Compression mode : Lossy
Stream size : 373 MiB (1%)
Title : Дубляж
Language : Russian
Service kind : Complete Main
Default : No
Forced : No

Audio #3
ID : 4
Format : DTS XLL
Format/Info : Digital Theater Systems
Commercial name : DTS-HD Master Audio
Codec ID : A_DTS
Duration : 1 h 56 min
Bit rate mode : Variable
Bit rate : 4 093 kb/s
Channel(s) : 6 channels
Channel layout : C L R Ls Rs LFE
Sampling rate : 48.0 kHz
Frame rate : 93.750 FPS (512 SPF)
Bit depth : 24 bits
Compression mode : Lossless
Stream size : 3.33 GiB (6%)
Title : DVO [Tycoon]
Language : Russian
Default : No
Forced : No

Audio #4
ID : 5
Format : DTS XLL
Format/Info : Digital Theater Systems
Commercial name : DTS-HD Master Audio
Codec ID : A_DTS
Duration : 1 h 56 min
Bit rate mode : Variable
Bit rate : 4 104 kb/s
Channel(s) : 6 channels
Channel layout : C L R Ls Rs LFE
Sampling rate : 48.0 kHz
Frame rate : 93.750 FPS (512 SPF)
Bit depth : 24 bits
Compression mode : Lossless
Stream size : 3.34 GiB (6%)
Title : AVO [Gavrilov]
Language : Russian
Default : No
Forced : No

Audio #5
ID : 6
Format : AC-3
Format/Info : Audio Coding 3
Commercial name : Dolby Digital
Codec ID : A_AC3
Duration : 1 h 56 min
Bit rate mode : Constant
Bit rate : 192 kb/s
Channel(s) : 2 channels
Channel layout : L R
Sampling rate : 48.0 kHz
Frame rate : 31.250 FPS (1536 SPF)
Compression mode : Lossy
Stream size : 160 MiB (0%)
Title : MVO [ICTV]
Language : Ukrainian
Service kind : Complete Main
Default : No
Forced : No

Audio #6
ID : 7
Format : MLP FBA 16-ch
Format/Info : Meridian Lossless Packing FBA with 16-channel presentation
Commercial name : Dolby TrueHD with Dolby Atmos
Codec ID : A_TRUEHD
Duration : 1 h 56 min
Bit rate mode : Variable
Bit rate : 4 432 kb/s
Maximum bit rate : 6 816 kb/s
Channel(s) : 8 channels
Channel layout : L R C LFE Ls Rs Lb Rb
Sampling rate : 48.0 kHz
Frame rate : 1 200.000 FPS (40 SPF)
Compression mode : Lossless
Stream size : 3.61 GiB (7%)
Title : Original
Language : English
Default : No
Forced : No
Number of dynamic objects : 11
Bed channel count : 1 channel
Bed channel configuration : LFE

Audio #7
ID : 8
Format : AC-3
Format/Info : Audio Coding 3
Commercial name : Dolby Digital
Codec ID : A_AC3
Duration : 1 h 56 min
Bit rate mode : Constant
Bit rate : 640 kb/s
Channel(s) : 6 channels
Channel layout : L R C LFE Ls Rs
Sampling rate : 48.0 kHz
Frame rate : 31.250 FPS (1536 SPF)
Compression mode : Lossy
Stream size : 533 MiB (1%)
Language : English
Service kind : Complete Main
Default : No
Forced : No

Text #1
ID : 9
Format : UTF-8
Codec ID : S_TEXT/UTF8
Codec ID/Info : UTF-8 Plain Text
Duration : 1 h 50 min
Bit rate : 61 b/s
Count of elements : 888
Stream size : 49.6 KiB (0%)
Title : Full [Позитив / Киномания]
Language : Russian
Default : No
Forced : No

Text #2
ID : 10
Format : UTF-8
Codec ID : S_TEXT/UTF8
Codec ID/Info : UTF-8 Plain Text
Duration : 1 h 48 min
Bit rate : 68 b/s
Count of elements : 1071
Stream size : 54.6 KiB (0%)
Title : Full [Tycoon]
Language : Russian
Default : No
Forced : No

Text #3
ID : 11
Format : UTF-8
Codec ID : S_TEXT/UTF8
Codec ID/Info : UTF-8 Plain Text
Duration : 1 h 54 min
Bit rate : 43 b/s
Count of elements : 1098
Stream size : 36.5 KiB (0%)
Title : Full
Language : English
Default : No
Forced : No

Text #4
ID : 12
Format : UTF-8
Codec ID : S_TEXT/UTF8
Codec ID/Info : UTF-8 Plain Text
Duration : 1 h 54 min
Bit rate : 46 b/s
Count of elements : 1203
Stream size : 39.1 KiB (0%)
Title : SDH
Language : English
Default : No
Forced : No

Menu
00:00:00.000 : en:Earth Under Man
00:04:16.006 : en:Eve Of The War
00:08:18.248 : en:Coming Of The Invaders
00:13:17.380 : en:In The Storm
00:19:19.867 : en:The Machine Emerges
00:25:29.319 : en:Heat-Ray
00:29:45.242 : en:Escape
00:34:32.570 : en:How We Reached Home
00:38:47.033 : en:At The Window
00:43:53.256 : en:Human Toll
00:49:03.732 : en:Worst Of Man
00:55:17.105 : en:Exodus
00:59:21.016 : en:Hudson Ferry
01:04:44.172 : en:The Fighting Begins
01:10:37.233 : en:Harlan Ogilvy
01:15:53.299 : en:Disturbing Revelations
01:20:28.991 : en:Stillness
01:24:48.000 : en:Days Of Imprisonment
01:29:03.964 : en:Alone With Harlan
01:33:59.884 : en:Under Foot
01:36:59.605 : en:Earth Under Them
01:41:07.561 : en:In Boston
01:45:27.404 : en:Wreckage
01:49:42.034 : en:End Credits




Скачать Война миров через торрент https://img11.lostpic.net/2020/05/18/57630780a49599b67fa2ef3dc83626c8.jpg Скачать, смотреть онлайн Война миров бесплантно в хорошем качестве Описание: Вольная экранизация одноимённого романа Герберта Уэллса...Действие происходит в наши дни. Рэй Феррье – вовсе не очередной ... 9.9 10 8
Торрент: Зарегистрирован [2020-05-19 00:34] · скачан: 89 раз
Статус: √ проверено
Размер: 53.52 GB
Как cкачать? Как скачать Война миров через торрент | UTorrent

% Раздел Тема Автор DL S | L
Ultra HD (UHD: 2K, 4K, 8K) [ 60.56 GB ] Война миров / War of the Worlds | Лицензия | 2160p, (Dolby Vision bober100 Скачать
1 | 0
Фильмы [HD 720p, 1080p] (Хороший звук DUB, MVO) [ 4.61 GB ] Война миров / War of the Worlds | DUB | 720p от Leonardo Ворон Скачать
1 | 0
Фильмы [HD 720p, 1080p] (Хороший звук DUB, MVO) [ 2.21 GB ] Война миров / War of the Worlds | | 720p maksymyuk Скачать
1 | 0
Фильмы (HD 720p, 1080p) (48-60 fps) [ 13.81 GB ] Война миров / War of the Worlds | Дубляж | 1080p / 60 FPS,Дубляж Tiberiumsun69 Скачать
1 | 0
Фильмы 2001-2005 [ 1.47 GB ] Война миров / War of the Worlds | | BDRip, лицензия SD Скачать
1 | 0
Фильмы (WEB-DL 720p, 1080p) [ 8.29 GB ] Война миров / War of the Worlds | | HDTV 720p L_E_X Скачать
1 | 0

28-11-2019 20:33  


Отключить вcю реклaмy на сайте, в т.ч. и в плеере онлайн просмотра!

    Дорогой пользователь! Огромная просьба, поблагодарите релизера, оцените раздачу и оставьте свои комментарий, если Вы скачали Война миров через торрент бесплатно!!
    Комментировать посты могут только пользователи прошедшие не сложную регистрацию
    Показать сообщения:    


    Война миров через торрент
    Скачать бесплатно Война миров
    Война миров скачать торрент
    Война миров смотреть онлайн
    Cкачать фильм Война миров бесплатно
    Война миров скачать торрент в хорошем качестве
    Война миров смотреть онлайн бесплатно в хорошем качестве
    Вы не можете начинать темы
    Вы не можете отвечать на сообщения
    Вы не можете редактировать свои сообщения
    Вы не можете удалять свои сообщения
    Вы не можете голосовать в опросах
    Вы не можете прикреплять файлы к сообщениям
    Вы можете скачивать файлы
    Война миров / War of the Worlds [2005, Фантастика, приключения, триллер, UHD BDRemux 2160p] Дубляж+DVO [Tycoon] +AVO [Гаврилов] +MVO смотреть онлайн, скачать торрент picoco.icu