Ссылка на приватное зеркало всего за 1$. Внимание количество ограничено!!!

iTunes

iTunes

iTunes

1

iTunes

iTunes

iTunes

iTunes

iTunes

30
pack

$ от Little Big

ВАЖНО

!!Акция!!

Alien_RageХит недели

RePack

Resident Evil 21

ИГРА 18+

pack

RePack

jed

!!Акция!!

Alien_Rage

RePack

fifa19

RePack

Assassins Creed: Odyssey

RePack

NEED FOR SPEED™ PAYBACK

4 сезон

9 сезон

Бесстыжие 9 сезон

Все сериалы

все сериалы на PB.wtf

RePack

FAR CRY 5
  

Сквозь снег / Snowpiercer / Сезон: 1 / Серии: 1-7 из 10 (Джеймс Хоуз, Сэм Миллер, Хелен Шейвер) [2020, Фантастика, боевик, триллер, драма, WEBRip 720p] MVO [LostFilm] piratbit.org

Сквозь снег через торрент piratbit.org

Раздают: 1 [ 114 KB/s ] Качают: 1 [ 0 KB/s ]
Размер: 17.94 GB | Добавлен: 4 д. назад | Торрент скачан:12 раз
Скачать  

21-05-2020 08:26 Сквозь снег Скачать торрент  

Сквозь снег | Snowpiercer
Год выпуска: 2020
Страна: США
Студия: CJ Entertainment, Studio T, Tomorrow Studios
Жанр: Фантастика, боевик, триллер, драма
Продолжительность: ~ 00:53:00
Перевод: Профессиональный (многоголосый) | LostFilm
Субтитры: Русские, английские

Режиссер: Джеймс Хоуз, Сэм Миллер, Хелен Шейвер

rating

В ролях: Дженнифер Коннелли, Давид Диггс, Мики Самнер, Шейла Ванд, Лена Холл, Элисон Райт, Иддо Голдберг, Аарон Гленнэйн, Карин Коновал, Анналиса Бассо

Описание: Мир претерпел техногенную катастрофу, которая привела к новому ледниковому периоду. По трансевразийской магистрали мчится гигантский поезд, заполненный выжившими. В поезде царит строгая классовая иерархия: от правящей элиты в первых вагонах до угнетённых в хвосте.

Качество: WEBRip 720p
Формат: MKV

Видео: 1280x720 at 23.976 fps, MPEG-4 AVC, ~7500kbps avg
Аудио#1 Russian: 48 kHz, AC3, 2/0 (L,R) ch, ~384 kbps avg |Многоголосый закадровый, LostFilm|
Аудио#2 English: 48 kHz, E-AC3, 3/2 (L,C,R,l,r) + LFE ch, ~768 kbps avg
скриншот  скриншот  скриншот  скриншот  

Общее
Уникальный идентификатор : 190456343029450348422223949281923775026 (0x8F488EB2AD3E4D418F08C2F70F1D3A32)
Полное имя : D:\Snowpiercer.S01.WEBRip.720p\Snowpiercer.S01E01.First.the.Weather.Changed.NF.WEBRip.720p.mkv
Формат : Matroska
Версия формата : Version 4
Размер файла : 3,39 Гбайт
Продолжительность : 52 м. 43 с.
Общий поток : 9203 Кбит/сек
Дата кодирования : UTC 2020-05-26 08:04:09
Программа кодирования : mkvmerge v7.9.0 ('Birds') 64bit
Библиотека кодирования : libebml v1.3.1 + libmatroska v1.4.2

Видео
Идентификатор : 1
Формат : AVC
Формат/Информация : Advanced Video Codec
Профиль формата : High@L4.1
Настройки формата : CABAC / 9 Ref Frames
Параметр CABAC формата : Да
Параметр RefFrames формата : 9 кадров
Идентификатор кодека : V_MPEG4/ISO/AVC
Продолжительность : 52 м. 43 с.
Битрейт : 8049 Кбит/сек
Ширина : 1280 пикселей
Высота : 720 пикселей
Соотношение сторон : 16:9
Режим частоты кадров : Постоянный
Частота кадров : 23,976 (24000/1001) кадра/сек
Цветовое пространство : YUV
Субдискретизация насыщенности : 4:2:0
Битовая глубина : 8 бит
Тип развёртки : Прогрессивная
Бит/(Пиксели*Кадры) : 0.364
Размер потока : 2,96 Гбайт (87%)
Библиотека кодирования : x264 core 160 r3000 33f9e14
Настройки программы : cabac=1 / ref=9 / deblock=1:-3:-3 / analyse=0x3:0x133 / me=umh / subme=10 / psy=1 / psy_rd=1.00:0.00 / mixed_ref=1 / me_range=48 / chroma_me=1 / trellis=2 / 8x8dct=1 / cqm=0 / deadzone=21,11 / fast_pskip=0 / chroma_qp_offset=-2 / threads=12 / lookahead_threads=2 / sliced_threads=0 / nr=0 / decimate=0 / interlaced=0 / bluray_compat=0 / constrained_intra=0 / bframes=8 / b_pyramid=2 / b_adapt=2 / b_bias=0 / direct=3 / weightb=1 / open_gop=0 / weightp=2 / keyint=250 / keyint_min=23 / scenecut=40 / intra_refresh=0 / rc=crf / mbtree=0 / crf=16.0 / qcomp=0.60 / qpmin=0 / qpmax=69 / qpstep=4 / ip_ratio=1.30 / pb_ratio=1.20 / aq=3:0.80
Язык : English
Default : Да
Forced : Нет

Аудио #1
Идентификатор : 2
Формат : AC-3
Формат/Информация : Audio Coding 3
Коммерческое название : Dolby Digital
Идентификатор кодека : A_AC3
Продолжительность : 52 м. 43 с.
Вид битрейта : Постоянный
Битрейт : 384 Кбит/сек
Каналы : 2 канала
ChannelLayout : L R
Частота : 48,0 КГц
Частота кадров : 31,250 кадров/сек (1536 SPF)
Метод сжатия : С потерями
Размер потока : 145 Мбайт (4%)
Заголовок : LostFilm
Язык : Russian
ServiceKind/String : Complete Main
Default : Да
Forced : Нет

Аудио #2
Идентификатор : 3
Формат : E-AC-3 JOC
Формат/Информация : Enhanced AC-3 with Joint Object Coding
Коммерческое название : Dolby Digital Plus with Dolby Atmos
Идентификатор кодека : A_EAC3
Продолжительность : 52 м. 43 с.
Вид битрейта : Постоянный
Битрейт : 768 Кбит/сек
Каналы : 6 каналов
ChannelLayout : L R C LFE Ls Rs
Частота : 48,0 КГц
Частота кадров : 31,250 кадров/сек (1536 SPF)
Метод сжатия : С потерями
Размер потока : 290 Мбайт (8%)
Заголовок : English
Язык : English
ServiceKind/String : Complete Main
Default : Нет
Forced : Нет
ComplexityIndex : 16
NumberOfDynamicObjects : 15
BedChannelCount/String : 1 канал
BedChannelConfiguration : LFE

Текст #1
Идентификатор : 4
Формат : UTF-8
Идентификатор кодека : S_TEXT/UTF8
Идентификатор кодека/Информация : UTF-8 Plain Text
Продолжительность : 51 м. 22 с.
Битрейт : 0 бит/сек
ElementCount : 10
Размер потока : 340 байт (0%)
Заголовок : Forced
Язык : Russian
Default : Да
Forced : Нет

Текст #2
Идентификатор : 5
Формат : UTF-8
Идентификатор кодека : S_TEXT/UTF8
Идентификатор кодека/Информация : UTF-8 Plain Text
Продолжительность : 51 м. 22 с.
Битрейт : 86 бит/сек
ElementCount : 620
Размер потока : 32,7 Кбайт (0%)
Заголовок : Full
Язык : Russian
Default : Нет
Forced : Нет

Текст #3
Идентификатор : 6
Формат : UTF-8
Идентификатор кодека : S_TEXT/UTF8
Идентификатор кодека/Информация : UTF-8 Plain Text
Продолжительность : 50 м. 45 с.
Битрейт : 58 бит/сек
ElementCount : 621
Размер потока : 21,8 Кбайт (0%)
Язык : English
Default : Нет
Forced : Нет

Внимание! Раздача ведётся путём добавления новых серий; при каждом добавлении создаётся новый торрент.
Чтобы начать докачку новой серии, пользователям необходимо сделать следующее:
1. Остановить скачивание;
2. Удалить старый торрент у себя из клиента (старые серии удалять не надо);
3. Скачать новый торрент и запустить его у себя в клиенте вместо старого, при этом указать клиенту путь в старую папку куда и должно происходить скачивание новых серий. Ваш клиент при этом должен произвести хеширование (проверку) старой папки и будет докачивать только те серии, которых у вас ещё нет. Старые серии при этом не удаляются, а продолжают раздаваться! Eсли вы уже удалили старые серии, то предотвратить повторную закачку старых серий можно, отжав галочку в соответствующих местах при запуске нового торрента.
piratbit.org



Скачать Сквозь снег через торрент https://c.radikal.ru/c06/2005/66/22853fd41e19.jpg Скачать фильм Сквозь снег через торрент бесплантно в хорошем качестве Описание: Мир претерпел техногенную катастрофу, которая привела к новому ледниковому периоду. По трансевразийской магистрали мчится ... 10 10 4
Торрент: Зарегистрирован [2020-07-01 03:00] · скачан: 12 раз
Статус: √ проверено
Размер: 17.94 GB
Как cкачать? Как скачать Сквозь снег через торрент | qTorrent

% Раздел Тема Автор DL S | L
Зарубежные сериалы [ 12.12 GB ] Сквозь снег / Snowpiercer / Сезон: 1 / Серии: 1-7 из 10 [2020 WEB-DL 1080p] DUB [Пифагор / Netflix] bober100 Скачать
13 | 5
Зарубежные сериалы [ 21.27 GB ] Сквозь снег / Snowpiercer / Сезон: 1 / Серии: 1-7 из 10 [2020 WEBRip 1080p] [DVO] killermax2013 Скачать
1 | 0
Зарубежные сериалы [ 5.75 GB ] Сквозь снег / Snowpiercer / Сезон: 1 / Серии: 1-7 из 10 [2020 ] - [Пифагор / Netflix] Twi7ter Скачать
115 | 171
Зарубежные сериалы [ 35.51 GB ] Сквозь снег / Snowpiercer / Сезон: 1 / Серии: 1-7 из 10 [2020 WEB-DL 1080p] + [MVO] killermax2013 Скачать
1 | 5
Зарубежные сериалы [ 56.39 GB ] Сквозь снег / Snowpiercer / Сезон: 1 / Серии: 1-7 из 10 [2020 UHD WEB-DL 2160p ] DUB [Пифагор / Netflix] +MVO [LostFilm] bober100 Скачать
1 | 0
Зарубежные сериалы [ 17.64 GB ] Сквозь снег / Snowpiercer / Сезон: 1 / Серии: 1-7 из 10 [2020 WEBRip 720p] MVO [NewStudio] bober100 Скачать
2 | 3
Зарубежные сериалы [ 34.62 GB ] Сквозь снег / Snowpiercer / Сезон: 1 / Серии: 1-7 из 10 [2020 WEB-DL 1080p] MVO [NewStudio] bober100 Скачать
2 | 0


Последний раз редактировалось: bober100 (2020-07-01 03:00), всего редактировалось 6 раз(а)

28-11-2019 20:33  

Отключить всю рекламу на сайте

    Дорогой пользователь! Огромная просьба, поблагодарите релизера, оцените раздачу и оставьте свои комментарий, если Вы скачали Сквозь снег через торрент бесплатно! Внесите свою лепту в развитие PiratBit!
    Комментировать посты могут только пользователи прошедшие не сложную регистрацию
    Показать сообщения:    

    Сквозь снег через торрент
    Скачать бесплатно Сквозь снег
    Сквозь снег скачать торрент
    Сквозь снег смотреть онлайн
    Cкачать фильм Сквозь снег бесплатно
    Сквозь снег скачать торрент в хорошем качестве
    Сквозь снег смотреть онлайн бесплатно в хорошем качестве


    Вы не можете начинать темы
    Вы не можете отвечать на сообщения
    Вы не можете редактировать свои сообщения
    Вы не можете удалять свои сообщения
    Вы не можете голосовать в опросах
    Вы не можете прикреплять файлы к сообщениям
    Вы можете скачивать файлы