Доктор Стрэндж

Лицензия

Добыча

Дубляж

Уэнсдэй

1 сезон

Тор

Дубляж

В эфире

Дубляж

Там, где раки поют

MVO

Властелин колец

1 сезон

Deluxe

pack

Рекомендуем

30

Пиратка

ВАЖНО

ВАЖНО

Ghostwire

Пиратка

jed

RePack

nioh2

RePack

RDR2

RePack

NEED FOR SPEED™ PAYBACK

RePack

скачать торрент

Кинопоиск HD

Острые козырьки 6 сезон

6 сезон

FAR CRY 6

RePack

скачать торрент

Лицензия

скачать торрент

MVO

1

1 сезон

скачать торрент

1 сезон

скачать торрент

Лицензия

  

1917 / 1917 (Сэм Мендес) [2019, Военный, история, драма, BDRip-AVC] Дубляж - [Лицензия] - ExKinoRay

1917 через торрент piratbit.org

Раздают: 19 [ 0 KB/s ] Качают: 2 [ 0 KB/s ]
Размер: 2.34 GB | Добавлен: 2 года 6 мес. назад | Торрент скачан:186 раз
Смотреть онлайн | Скачать   

21-05-2020 11:53 1917 Скачать торрент  

Название: 1917
Оригинальное название: 1917
Год выхода: 2019
Жанр: военный, боевик, драма, история
Режиссер: Сэм Мендес
В ролях: Эндрю Скотт, Бенедикт Камбербэтч, Колин Фёрт, Ричард Мэдден, Дин-Чарльз Чепмен, Джордж МакКэй, Марк Стронг, Дэниэл Мейс, Эдриан Скарборо, Клэр Дюбюрк и другие.

Описание: 6 апреля 1917 года, разгар Первой мировой войны, Западный фронт на севере Франции. Британский генерал поручает капралу Блэйку и его сослуживцу смертельно опасную миссию. Они должны пересечь вражескую территорию, вроде бы оставленную германскими войсками, и доставить приказ об отмене наступления во 2-й батальон Девонширского полка, иначе 1600 солдат попадут в ловушку противника, в том числе и брат Блэйка.

rating

Страна: США, Великобритания, Индия, Испания, Канада
Студия: Amblin Partners, DreamWorks, Neal Street Productions
Продолжительность: 01:58:58
Перевод: Дублированный | Лицензия

Формат: MKV
Исходник: 1917.2019.BluRay.1080p.TrueHD.Atmos.7.1.AVC.REMUX-FraMeSToR
Качество: BDRip-AVC
Видео: MPEG-4 AVC, 1024x426 (2.40:1), 23.976 fps, 1917 Kbps, 0.183 bit/pixel
Аудио #01: 48 kHz, AC3, 5.1, 448 Kbps | Лицензия | RUS |
Аудио #02: 48 kHz, AC3, 5.1, 448 Kbps | Оригинал | ENG |
Субтитры: Русские (Full (MENINSUB)), английские
x264 [info]: frame I:719 Avg QP:15.24 size: 66965
x264 [info]: frame P:51842 Avg QP:19.81 size: 18903
x264 [info]: frame B:118583 Avg QP:20.80 size: 5752
x264 [info]: consecutive B-frames: 7.3% 9.1% 16.6% 25.6% 14.3% 18.8% 3.0% 1.2% 1.1% 1.3% 1.8%
_____________________________________________________
General
Unique ID : 188404207822516801107147539938856449790 (0x8DBD549EE295603B848AEE7AAB24B6FE)
Complete name : F:\1917.2019.BDRip.AVC.ExKinoRay.mkv
Format : Matroska
Format version : Version 2
File size : 2.34 GiB
Duration : 1 h 58 min
Overall bit rate : 2 815 kb/s
Movie name : 1917 2019 from ExKinoRay
Encoded date : UTC 2020-05-21 11:33:17
Writing application : mkvmerge v5.6.0 ('Kenya Kane') built on May 27 2012 16:44:04
Writing library : libebml v1.2.3 + libmatroska v1.3.0
Attachments : poster.jpg

Video
ID : 1
Format : AVC
Format/Info : Advanced Video Codec
Format profile : High@L4.1
Format settings, CABAC : Yes
Format settings, ReFrames : 11 frames
Codec ID : V_MPEG4/ISO/AVC
Duration : 1 h 58 min
Bit rate : 1 917 kb/s
Width : 1 024 pixels
Height : 426 pixels
Display aspect ratio : 2.40:1
Frame rate mode : Constant
Frame rate : 23.976 (23976/1000) FPS
Color space : YUV
Chroma subsampling : 4:2:0
Bit depth : 8 bits
Scan type : Progressive
Bits/(Pixel*Frame) : 0.183
Stream size : 1.55 GiB (66%)
Title : Enigma
Writing library : x264 core 152 r2851 ba24899
Encoding settings : cabac=1 / ref=11 / deblock=1:-2:-2 / analyse=0x3:0x113 / me=umh / subme=10 / psy=1 / psy_rd=1.02:0.05 / mixed_ref=1 / me_range=32 / chroma_me=1 / trellis=2 / 8x8dct=1 / cqm=0 / deadzone=21,11 / fast_pskip=0 / chroma_qp_offset=-3 / threads=12 / lookahead_threads=3 / sliced_threads=0 / nr=0 / decimate=0 / interlaced=0 / bluray_compat=0 / constrained_intra=0 / bframes=10 / b_pyramid=2 / b_adapt=2 / b_bias=0 / direct=3 / weightb=1 / open_gop=0 / weightp=2 / keyint=240 / keyint_min=23 / scenecut=40 / intra_refresh=0 / rc=2pass / mbtree=0 / bitrate=1917 / ratetol=1.0 / qcomp=0.60 / qpmin=0 / qpmax=51 / qpstep=4 / cplxblur=20.0 / qblur=0.5 / ip_ratio=1.40 / pb_ratio=1.30 / aq=1:1.00
Language : English
Default : Yes
Forced : No
Color range : Limited
Color primaries : BT.709
Transfer characteristics : BT.709
Matrix coefficients : BT.709

Audio #1
ID : 2
Format : AC-3
Format/Info : Audio Coding 3
Mode extension : CM (complete main)
Format settings, Endianness : Big
Codec ID : A_AC3
Duration : 1 h 58 min
Bit rate mode : Constant
Bit rate : 448 kb/s
Channel(s) : 6 channels
Channel positions : Front: L C R, Side: L R, LFE
Sampling rate : 48.0 kHz
Frame rate : 31.250 FPS (1536 spf)
Compression mode : Lossy
Stream size : 381 MiB (16%)
Title : Дубляж (Blu-Ray)
Default : Yes
Forced : No

Audio #2
ID : 3
Format : AC-3
Format/Info : Audio Coding 3
Mode extension : CM (complete main)
Format settings, Endianness : Big
Codec ID : A_AC3
Duration : 1 h 58 min
Bit rate mode : Constant
Bit rate : 448 kb/s
Channel(s) : 6 channels
Channel positions : Front: L C R, Side: L R, LFE
Sampling rate : 48.0 kHz
Frame rate : 31.250 FPS (1536 spf)
Compression mode : Lossy
Stream size : 381 MiB (16%)
Language : English
Default : No
Forced : No

Text #1
ID : 4
Format : UTF-8
Codec ID : S_TEXT/UTF8
Codec ID/Info : UTF-8 Plain Text
Title : Forced
Language : Russian
Default : Yes
Forced : No

Text #2
ID : 5
Format : UTF-8
Codec ID : S_TEXT/UTF8
Codec ID/Info : UTF-8 Plain Text
Title : Full (MENINSUB)
Language : Russian
Default : No
Forced : No

Text #3
ID : 6
Format : UTF-8
Codec ID : S_TEXT/UTF8
Codec ID/Info : UTF-8 Plain Text
Language : English
Default : No
Forced : No

Menu
00:00:00.000 : en:00:00:00.000
00:04:59.424 : en:00:04:59.424
00:08:19.374 : en:00:08:19.374
00:13:26.639 : en:00:13:26.639
00:16:38.789 : en:00:16:38.789
00:23:32.494 : en:00:23:32.494
00:30:28.660 : en:00:30:28.660
00:35:34.549 : en:00:35:34.549
00:42:25.376 : en:00:42:25.376
00:51:34.091 : en:00:51:34.091
00:56:36.310 : en:00:56:36.310
01:02:29.079 : en:01:02:29.079
01:06:33.573 : en:01:06:33.573
01:12:04.320 : en:01:12:04.320
01:19:45.197 : en:01:19:45.197
01:28:47.822 : en:01:28:47.822
01:33:43.451 : en:01:33:43.451
01:38:11.594 : en:01:38:11.594
01:41:43.681 : en:01:41:43.681
01:49:46.580 : en:01:49:46.580


Релиз от: VK релиз-группы

Автор релиза: Enigma



Скачать 1917 через торрент http://a.radikal.ru/a34/2001/56/b540c1b7701d.jpg Скачать, смотреть онлайн 1917 бесплантно в хорошем качестве Описание: 6 апреля 1917 года, разгар Первой мировой войны, Западный фронт на севере Франции. Британский генерал поручает капралу Блэйку и ... 7.8 10 4
Info! Золотая раздача, скачанное не засчитывается.
Торрент: Зарегистрирован [2020-05-21 11:53] · скачан: 186 раз
Статус: √ проверено
Размер: 2.34 GB
Как cкачать? Как скачать 1917 через торрент | UTorrent

28-11-2019 20:33  


Отключить вcю реклaмy на сайте, в т.ч. и в плеере онлайн просмотра!

    Дорогой пользователь! Огромная просьба, поблагодарите релизера, оцените раздачу и оставьте свои комментарий, если Вы скачали 1917 через торрент бесплатно!!
    Комментировать посты могут только пользователи прошедшие не сложную регистрацию
    Показать сообщения:    


    1917 через торрент
    Скачать бесплатно 1917
    1917 скачать торрент
    1917 смотреть онлайн
    Cкачать фильм 1917 бесплатно
    1917 скачать торрент в хорошем качестве
    1917 смотреть онлайн бесплатно в хорошем качестве
    Вы не можете начинать темы
    Вы не можете отвечать на сообщения
    Вы не можете редактировать свои сообщения
    Вы не можете удалять свои сообщения
    Вы не можете голосовать в опросах
    Вы не можете прикреплять файлы к сообщениям
    Вы можете скачивать файлы
    1917 / 1917 [2019, Военный, история, драма, BDRip-AVC] Дубляж - [Лицензия] - ExKinoRay смотреть онлайн, скачать торрент picoco.icu